<?xml version="1.0" standalone="no"?>
<!DOCTYPE svg PUBLIC "-//W3C//DTD SVG 1.1//EN" "http://www.w3.org/Graphics/SVG/1.1/DTD/svg11.dtd" >
<svg xmlns="http://www.w3.org/2000/svg">
<defs>
  <font id="Carbon" horiz-adv-x="1000">
    <font-face font-family="Carbon"
      units-per-em="1000" ascent="1000"
      descent="0" />
    <missing-glyph horiz-adv-x="0" />
    <glyph glyph-name="carbon:3d-cursor"
      unicode="&#xE001;"
      horiz-adv-x="1000" d="M406.25 875H125V593.4375H187.5V812.5H406.25V875zM921.5625 590L640.3125 746.25A31.25 31.25 0 0 1 609.0625 746.25L327.8125 590A31.25 31.25 0 0 1 312.5 562.5V250A31.25 31.25 0 0 1 328.75 222.8125L610 66.5625A31.25 31.25 0 0 1 625 62.5A32.8125 32.8125 0 0 1 640.3125 66.5625L921.5625 222.8125A31.25 31.25 0 0 1 937.5 250V562.5A31.25 31.25 0 0 1 921.5625 590zM593.75 146.875L375 268.4375V509.6874999999999L593.75 388.1249999999999zM625 442.1875L408.125 562.5L625 683.125L841.875 562.5zM875 268.4375L656.25 146.875V388.1249999999999L875 509.6874999999999z" />
    <glyph glyph-name="carbon:3d-cursor-alt"
      unicode="&#xE002;"
      horiz-adv-x="1000" d="M500 62.5A437.5 437.5 0 1 0 937.5 500A438 438 0 0 0 500 62.5zM500 875A375 375 0 1 1 875 500A375.4375 375.4375 0 0 1 500 875zM468.75 781.25H531.25V562.5H468.75zM218.75 531.25H437.5V468.75H218.75zM468.75 437.5H531.25V218.75H468.75zM562.5 531.25H781.25V468.75H562.5z" />
    <glyph glyph-name="carbon:3d-curve-auto-colon"
      unicode="&#xE003;"
      horiz-adv-x="1000" d="M296.875 750H628.125A156.25 156.25 0 1 1 628.125 812.5H296.875A171.875 171.875 0 0 1 296.875 468.75H640.625A109.375 109.375 0 0 0 640.625 250H371.875A156.25 156.25 0 1 1 371.875 187.5H640.625A171.875 171.875 0 0 1 640.625 531.25H296.875A109.375 109.375 0 0 0 296.875 750zM781.25 875A93.75 93.75 0 1 0 687.5 781.25A93.75 93.75 0 0 0 781.25 875zM218.75 125A93.75 93.75 0 1 0 312.5 218.75A93.75 93.75 0 0 0 218.75 125z" />
    <glyph glyph-name="carbon:3d-curve-auto-vessels"
      unicode="&#xE004;"
      horiz-adv-x="1000" d="M531.25 656.25A93.75 93.75 0 0 0 625 750H628.125A156.25 156.25 0 1 1 628.125 812.5H625A156.25 156.25 0 0 1 468.75 656.25V625H406.25A93.75 93.75 0 0 0 312.5 718.75V781.25A156.25 156.25 0 0 1 156.25 937.5H125V875H156.25A93.75 93.75 0 0 0 250 781.25V718.75A156.25 156.25 0 0 1 406.25 562.5H468.75V343.75A93.75 93.75 0 0 0 375 250H371.875A156.25 156.25 0 1 1 371.875 187.5H375A156.25 156.25 0 0 1 531.25 343.75H609.375A78.125 78.125 0 0 0 687.5 265.625A140.9375 140.9375 0 0 1 828.125 125H875V187.5H828.125A78.125 78.125 0 0 0 750 265.625A140.9375 140.9375 0 0 1 609.375 406.25H531.25zM781.25 875A93.75 93.75 0 1 0 687.5 781.25A93.75 93.75 0 0 0 781.25 875zM218.75 125A93.75 93.75 0 1 0 312.5 218.75A93.75 93.75 0 0 0 218.75 125z" />
    <glyph glyph-name="carbon:3d-curve-manual"
      unicode="&#xE005;"
      horiz-adv-x="1000" d="M468.75 343.75A93.75 93.75 0 0 0 375 250H371.875A156.25 156.25 0 1 1 371.875 187.5H375A156.25 156.25 0 0 1 531.25 343.75zM218.75 125A93.75 93.75 0 1 0 312.5 218.75A93.75 93.75 0 0 0 218.75 125zM468.75 593.75H531.25V406.25H468.75zM781.25 937.5A156.25 156.25 0 0 1 628.125 812.5H625A156.25 156.25 0 0 1 468.75 656.25H531.25A93.75 93.75 0 0 0 625 750H628.125A156.25 156.25 0 1 1 781.25 937.5zM781.25 687.5A93.75 93.75 0 1 0 875 781.25A93.75 93.75 0 0 0 781.25 687.5z" />
    <glyph glyph-name="carbon:3d-ica"
      unicode="&#xE006;"
      horiz-adv-x="1000" d="M468.75 562.5H312.5A62.5 62.5 0 0 0 250 625V875A62.5 62.5 0 0 0 268.4375 919.375A111.5625 111.5625 0 0 0 312.5 937.5H468.75V875H312.5V625H468.75zM125 812.5H187.5V562.5H125zM125 937.5H187.5V875H125zM857.8125 402.8125L670.3125 496.5625A31.25 31.25 0 0 1 642.1875 496.5625L454.6875 402.8125A31.25 31.25 0 0 1 437.5 375V156.25A31.25 31.25 0 0 1 454.6875 128.4375L642.1875 34.6875A31.25 31.25 0 0 1 670.3125 34.6875L857.8125 128.4375A31.25 31.25 0 0 1 875 156.25V375A31.25 31.25 0 0 1 857.8125 402.8125zM656.25 434.0625L773.75 375L656.25 316.25L538.75 375zM500 324.6875L625 262.1875V113.4375000000001L500 175.9375000000001zM687.5 113.4375000000001V261.8750000000001L812.5 324.3750000000001V175.6250000000001zM718.75 937.5H593.75A62.5 62.5 0 0 1 531.25 875V562.5H593.75V687.5H718.75V562.5H781.25V875A62.5 62.5 0 0 1 718.75 937.5zM593.75 750V875H718.75V750z" />
    <glyph glyph-name="carbon:3d-mpr-toggle"
      unicode="&#xE007;"
      horiz-adv-x="1000" d="M343.75 937.5H62.5V656.25H125V875H343.75V937.5zM62.5 343.75V62.5H343.75V125H125V343.75H62.5zM937.5 656.25V937.5H656.25V875H875V656.25H937.5zM656.25 62.5H937.5V343.75H875V125H656.25V62.5zM796.5625 683.4375L515.3125 839.6875A31.25 31.25 0 0 1 484.0624999999999 839.6875L202.8125 683.4375A31.25 31.25 0 0 1 187.5 656.25V343.75A31.25 31.25 0 0 1 203.4375 316.5625L484.6875 160.3125A31.25 31.25 0 0 1 515.9374999999999 160.3125L797.1874999999999 316.5625A31.25 31.25 0 0 1 812.5 343.75V656.25A31.25 31.25 0 0 1 796.5625 683.4375zM500 776.875L716.875 656.25L500 535.625L283.125 656.25zM250 603.125L468.75 481.5625V240.625L250 362.1875zM531.25 240.6250000000001V481.5625000000001L750 603.1250000000001V362.1875000000001z" />
    <glyph glyph-name="carbon:3d-print-mesh"
      unicode="&#xE008;"
      horiz-adv-x="1000" d="M936.75 506.78125L874.25 788.03125A31.25 31.25 0 0 1 861.09375 807.25L673.59375 932.25A31.25 31.25 0 0 1 656.25 937.5H343.75A31.25 31.25 0 0 1 326.40625 932.25L138.90625 807.25A31.25 31.25 0 0 1 125.75 788.03125L63.25 506.7812499999999A31.3125 31.3125 0 0 1 63.8125 491.0312499999999L157.5625 178.5312499999999A31.25 31.25 0 0 1 178.5 157.5624999999999L491 63.8124999999999H491.1875A30.59375 30.59375 0 0 1 508.8125 63.8124999999999H508.9687499999999L821.46875 157.5624999999999A31.25 31.25 0 0 1 842.4375 178.5L936.1875 491A31.3125 31.3125 0 0 1 936.75 506.78125zM341.4375 480.75L219.25 725.09375L446.8125 642.34375zM500 609.46875L612.15625 437.5H387.8125zM605.6875 375L500 163.625L394.3125 375zM553.1875 642.34375L780.71875 725.09375L658.53125 480.71875zM568.4375 714.375L665.1875 862.71875L775.0312500000001 789.5zM500 723.875L401.4375 875H598.5625zM431.5625 714.375L225 789.5L334.8125 862.71875zM280.1875000000001 463.4375L130.1250000000001 519.71875L167.6562500000001 688.53125zM439.6875 144.4687499999999L236.5000000000001 205.4062499999999L334.2500000000001 355.3437499999999zM665.71875 355.34375L763.5000000000001 205.4374999999999L560.3125000000001 144.4687499999999zM832.34375 688.53125L869.84375 519.71875L719.78125 463.46875zM141.78125 448.59375L285.375 394.78125L198.09375 260.9374999999999zM801.9062499999999 260.9375L714.625 394.7812500000001L858.2187499999999 448.5937500000001z" />
    <glyph glyph-name="carbon:3d-software"
      unicode="&#xE009;"
      horiz-adv-x="1000" d="M671.5625 590.15625L390.3125 746.40625A31.25 31.25 0 0 1 359.0625 746.40625L77.8125 590.15625A31.5 31.5 0 0 1 62.5 562.5V250.1562500000001A31.25 31.25 0 0 1 78.75 222.96875L360 66.71875A31.375 31.375 0 0 1 375 62.5A33 33 0 0 1 390.3125 66.71875L671.5625000000001 222.96875A31 31 0 0 1 687.5 250V562.5A31.5 31.5 0 0 1 671.5625 590.15625zM343.75 147.03125L125 268.59375V509.8437499999999L343.75 388.2812499999999zM375 442.3437499999999L158.125 562.5L375 683.28125L591.875 562.65625zM625 268.59375L406.25 147.03125V388.2812499999999L625 509.8437499999999zM937.5 812.5H812.5V937.5H750V812.5H625V750H750V625H812.5V750H937.5V812.5z" />
    <glyph glyph-name="carbon:3rd-party-connected"
      unicode="&#xE00A;"
      horiz-adv-x="1000" d="M812.5 312.5A120.625 120.625 0 0 1 750 294.6875L653.4375 391.5625A187.5 187.5 0 0 1 653.4375 608.4375L750 705.3125A120.625 120.625 0 0 1 812.5 687.5A125 125 0 1 1 687.5 812.5A120.625 120.625 0 0 1 705.3125 750L608.4375 653.4375A187.5 187.5 0 0 1 391.5625 653.4375L294.6875 750A120.625 120.625 0 0 1 312.5 812.5A125 125 0 1 1 187.5 687.5A120.625 120.625 0 0 1 250 705.3125L346.5625 608.4375A187.5 187.5 0 0 1 346.5625 391.5625L250 294.6875A120.625 120.625 0 0 1 187.5 312.5A125 125 0 1 1 312.5 187.5A120.625 120.625 0 0 1 294.6875 250L391.5625 346.5625A187.5 187.5 0 0 1 608.4375 346.5625L705.3125 250A120.625 120.625 0 0 1 687.5 187.5A125 125 0 1 1 812.5 312.5zM500 375A125 125 0 1 0 625 500A125 125 0 0 0 500 375z" />
    <glyph glyph-name="carbon:4k"
      unicode="&#xE00B;"
      horiz-adv-x="1000" d="M375 655.3125V530.3125H312.5V655.3125H250V467.8125H375V342.8125H437.5V655.3125H375zM755.9374999999999 655.3125H687.5L593.75 518.125V655.3125H531.25V342.8125000000001H593.75V428.125L622.1875 469.6875L687.5 342.8125H755.9375L662.5000000000001 518.4375L755.9375000000001 655.3125zM875 187.5H125A62.5 62.5 0 0 0 62.5 250V750A62.5 62.5 0 0 0 125 812.5H875A62.5 62.5 0 0 0 937.5 750V250A62.5 62.5 0 0 0 875 187.5zM125 750V250H875V750z" />
    <glyph glyph-name="carbon:4k-filled"
      unicode="&#xE00C;"
      horiz-adv-x="1000" d="M875 812.5H125A62.5 62.5 0 0 1 62.5 750V250A62.5 62.5 0 0 1 125 187.5H875A62.5 62.5 0 0 1 937.5 250V750A62.5 62.5 0 0 1 875 812.5zM437.5 343.75H375V468.75H250V656.25H312.5V531.25H375V656.25H437.5zM755.9374999999999 343.75H687.5L622.1875 470.625L593.75 429.0624999999999V343.75H531.25V656.25H593.75V519.0625L687.5 656.25H755.9375L662.1875 519.375z" />
    <glyph glyph-name="carbon:accessibility"
      unicode="&#xE00D;"
      horiz-adv-x="1000" d="M923.4375 184.0625L828.125 136.5625L739.375 343.75H468.75A62.5 62.5 0 0 0 406.25 406.25V593.75A62.5 62.5 0 0 0 531.25 593.75V468.75H750V531.25H593.75V593.75A125 125 0 0 1 343.75 593.75V562.5A281.25 281.25 0 1 1 617.8125 218.75H553.4375A218.75 218.75 0 1 0 343.75 500V406.25A125 125 0 0 1 468.75 281.25H698.125L796.875 50.9375L951.5625 128.4375zM484.375 750A109.375 109.375 0 1 0 593.75 859.375A109.375 109.375 0 0 0 484.375 750zM484.375 906.25A46.875 46.875 0 1 1 531.25 859.375A46.875 46.875 0 0 1 484.375 906.25z" />
    <glyph glyph-name="carbon:accessibility-alt"
      unicode="&#xE00E;"
      horiz-adv-x="1000" d="M718.75 562.5V625H281.25V562.5H437.5V477.0625L316.625 265.5L370.875 234.4999999999999L486.875 437.5H513.125L629.125 234.4999999999999L683.3750000000001 265.5L562.5 477.0625V562.5H718.75zM437.5 718.75A62.5 62.5 0 0 1 562.5 718.75A62.5 62.5 0 0 1 437.5 718.75M500 62.5A437.5 437.5 0 1 0 937.5 500A438 438 0 0 0 500 62.5zM500 875A375 375 0 1 1 875 500A375.4375 375.4375 0 0 1 500 875z" />
    <glyph glyph-name="carbon:accessibility-color"
      unicode="&#xE00F;"
      horiz-adv-x="1000" d="M500 375A125 125 0 1 0 625 500A125.15625 125.15625 0 0 0 500 375zM500 562.5A62.5 62.5 0 1 1 562.5 500A62.5625 62.5625 0 0 1 500 562.5zM500 250A332.96875 332.96875 0 0 0 188.4375 492.4375L186.5625 500L188.4375 507.5625A332.96875 332.96875 0 0 0 500 750A332.96875 332.96875 0 0 0 811.5625 507.5625L813.4374999999999 500L811.5625 492.4375A332.96875 332.96875 0 0 0 500 250zM251.09375 500A268.6875 268.6875 0 0 1 500 312.5A268.6875 268.6875 0 0 1 748.90625 500A268.6875 268.6875 0 0 1 500 687.5A268.6875 268.6875 0 0 1 251.09375 500zM500 62.5A437.5 437.5 0 1 0 937.5 500A438 438 0 0 0 500 62.5zM500 875A375 375 0 1 1 875 500A375.4375 375.4375 0 0 1 500 875z" />
    <glyph glyph-name="carbon:accessibility-color-filled"
      unicode="&#xE010;"
      horiz-adv-x="1000" d="M500 687.5A268.6875 268.6875 0 0 1 251.09375 500A268.6875 268.6875 0 0 1 500 312.5A268.6875 268.6875 0 0 1 748.90625 500A268.6875 268.6875 0 0 1 500 687.5zM500 375A125 125 0 1 0 625 500A125.15625 125.15625 0 0 0 500 375zM500 937.5A437.5 437.5 0 1 1 937.5 500A437.5 437.5 0 0 1 500 937.5zM500 250A332.9375 332.9375 0 0 0 188.4375 492.4375L186.5625 500L188.4375 507.5625A332.9375 332.9375 0 0 0 500 750A332.9375 332.9375 0 0 0 811.5625 507.5625L813.4374999999999 500L811.5625 492.4375A332.9375 332.9375 0 0 0 500 250zM437.5 500A62.5 62.5 0 0 1 562.5 500A62.5 62.5 0 0 1 437.5 500" />
    <glyph glyph-name="carbon:account"
      unicode="&#xE011;"
      horiz-adv-x="1000" d="M250 562.5H593.75V500H250zM250 406.25H656.25V343.75H250zM875 875H125A62.5 62.5 0 0 1 62.5 812.5V187.5A62.5 62.5 0 0 1 125 125H875A62.5 62.5 0 0 1 937.5 187.5V812.5A62.5 62.5 0 0 1 875 875zM875 812.5V750H125V812.5zM125 187.5V687.5H875V187.5z" />
    <glyph glyph-name="carbon:accumulation-ice"
      unicode="&#xE012;"
      horiz-adv-x="1000" d="M687.5 750V500L718.75 437.5L750 500V750H687.5zM562.5 750V437.5L593.75 375L625 437.5V750H562.5zM875 875A62.5625 62.5625 0 0 1 812.5 812.5V187.5H187.5V312.5H312.5V375H187.5V500H312.5V562.5H187.5V687.5H437.5V562.5L468.75 500L500 562.5V750H187.5V812.5A62.5625 62.5625 0 0 1 125 875H62.5V812.5H125V187.5A62.5625 62.5625 0 0 1 187.5 125H812.5A62.5625 62.5625 0 0 1 875 187.5V812.5H937.5V875z" />
    <glyph glyph-name="carbon:accumulation-precipitation"
      unicode="&#xE013;"
      horiz-adv-x="1000" d="M500 500H562.5V437.5H500zM562.5 437.5H625V375H562.5zM625 375H687.5V312.5H625zM625 500H687.5V437.5H625zM500 375H562.5V312.5H500zM625 625A121.8125 121.8125 0 0 0 500 743.03125A121.9375 121.9375 0 0 0 520.40625 807.53125L599.0624999999999 924.5625A32.4375 32.4375 0 0 0 650.9375 924.5625L728.5937499999999 809.0625A124.0625 124.0625 0 0 0 750 743.03125A121.8125 121.8125 0 0 0 625 625zM625 851.15625L573.25 774.1875A59.0625 59.0625 0 0 1 562.5 743.03125A59.375 59.375 0 0 1 625 687.5A59.375 59.375 0 0 1 687.5 743.03125A61.875 61.875 0 0 1 675.78125 775.75zM875 875A62.5625 62.5625 0 0 1 812.5 812.5V187.5H187.5V687.5H250V437.5L281.25 375L312.5 437.5V687.5H375V562.5L406.25 500L437.5 562.5V750H187.5V812.5A62.5625 62.5625 0 0 1 125 875H62.5V812.5H125V187.5A62.5625 62.5625 0 0 1 187.5 125H812.5A62.5625 62.5625 0 0 1 875 187.5V812.5H937.5V875z" />
    <glyph glyph-name="carbon:accumulation-rain"
      unicode="&#xE014;"
      horiz-adv-x="1000" d="M875 875A62.5625 62.5625 0 0 1 812.5 812.5V750H750A107.4375 107.4375 0 0 0 654.6562499999999 822.375A31.46875 31.46875 0 0 1 625 843.75A30.9375 30.9375 0 0 1 595.40625 822.53125A107.5 107.5 0 0 0 500 750A107.4375 107.4375 0 0 0 404.65625 822.375A31.46875 31.46875 0 0 1 375 843.75A30.34375 30.34375 0 0 1 345.40625 822.53125A107.5 107.5 0 0 0 250 750H187.5V812.5A62.5625 62.5625 0 0 1 125 875H62.5V812.5H125V187.5A62.5625 62.5625 0 0 1 187.5 125H812.5A62.5625 62.5625 0 0 1 875 187.5V812.5H937.5V875zM187.5 187.5V312.5H312.5V375H187.5V500H312.5V562.5H187.5V687.5H250A154.125 154.125 0 0 1 375 749.59375A156.875 156.875 0 0 1 625 749.59375A154.125 154.125 0 0 1 750 687.5H812.5V187.5z" />
    <glyph glyph-name="carbon:accumulation-snow"
      unicode="&#xE015;"
      horiz-adv-x="1000" d="M375 937.5H437.5V875H375zM437.5 875H500V812.5H437.5zM500 812.5H562.5V750H500zM500 937.5H562.5V875H500zM375 812.5H437.5V750H375zM437.5 437.5H500V375H437.5zM500 375H562.5V312.5H500zM562.5 312.5H625V250H562.5zM562.5 437.5H625V375H562.5zM437.5 312.5H500V250H437.5zM562.5 687.5H625V625H562.5zM625 625H687.5V562.5H625zM687.5 562.5H750V500H687.5zM687.5 687.5H750V625H687.5zM562.5 562.5H625V500H562.5zM875 875A62.5625 62.5625 0 0 1 812.5 812.5V187.5H187.5V312.5H312.5V375H187.5V500H312.5V562.5H187.5V687.5H312.5V750H187.5V812.5A62.5625 62.5625 0 0 1 125 875H62.5V812.5H125V187.5A62.5625 62.5625 0 0 1 187.5 125H812.5A62.5625 62.5625 0 0 1 875 187.5V812.5H937.5V875z" />
    <glyph glyph-name="carbon:activity"
      unicode="&#xE016;"
      horiz-adv-x="1000" d="M375 93.75A31.25 31.25 0 0 0 346.25 113.125L197.8125 468.75H62.5V531.25H218.75A31.25 31.25 0 0 0 247.5 511.875L375 210L626.8750000000001 885.9374999999999A31.25 31.25 0 0 0 656.25 906.25A31.25 31.25 0 0 0 685.3125 885L803.75 531.25H937.5V468.75H781.25A31.25 31.25 0 0 0 751.5625 490L656.25 781.25L404.375 114.0625A31.25 31.25 0 0 0 375 93.75z" />
    <glyph glyph-name="carbon:add"
      unicode="&#xE017;"
      horiz-adv-x="1000" d="M531.25 531.25V750H468.75V531.25H250V468.75H468.75V250H531.25V468.75H750V531.25z" />
    <glyph glyph-name="carbon:add-alt"
      unicode="&#xE018;"
      horiz-adv-x="1000" d="M500 875C706.25 875 875 706.25 875 500S706.25 125 500 125S125 293.75 125 500S293.75 875 500 875M500 937.5C259.375 937.5 62.5 740.625 62.5 500S259.375 62.5 500 62.5S937.5 259.375 937.5 500S740.625 937.5 500 937.5zM750 531.25H531.25V750H468.75V531.25H250V468.75H468.75V250H531.25V468.75H750z" />
    <glyph glyph-name="carbon:add-comment"
      unicode="&#xE019;"
      horiz-adv-x="1000" d="M554.375 62.5L500 93.75L625 312.5H812.5A62.5 62.5 0 0 1 875 375V750A62.5 62.5 0 0 1 812.5 812.5H187.5A62.5 62.5 0 0 1 125 750V375A62.5 62.5 0 0 1 187.5 312.5H468.75V250H187.5A125 125 0 0 0 62.5 375V750A125 125 0 0 0 187.5 875H812.5A125 125 0 0 0 937.5 750V375A125 125 0 0 0 812.5 250H661.25zM531.25 718.75H468.75V593.75H343.75V531.25H468.75V406.25H531.25V531.25H656.25V593.75H531.25V718.75z" />
    <glyph glyph-name="carbon:add-filled"
      unicode="&#xE01A;"
      horiz-adv-x="1000" d="M500 937.5A442.8750000000001 442.8750000000001 0 0 1 62.5 500A442.8750000000001 442.8750000000001 0 0 1 500 62.5A442.8750000000001 442.8750000000001 0 0 1 937.5 500A442.8750000000001 442.8750000000001 0 0 1 500 937.5zM750 468.75H531.25V250H468.75V468.75H250V531.25H468.75V750H531.25V531.25H750z" />
    <glyph glyph-name="carbon:agriculture-analytics"
      unicode="&#xE01B;"
      horiz-adv-x="1000" d="M757.84375 332.1875L826.40625 286.5A31.25 31.25 0 0 1 868.75 293.75L962.5 418.75L912.5 456.2499999999999L836.46875 354.8749999999999L767.34375 400.9999999999999A31.25 31.25 0 0 1 724.5625 393.1874999999999L625 253.78125V500H562.5V187.5A62.5625 62.5625 0 0 1 625 125H937.5V187.5H654.4687499999999zM62.5 343.75H500V281.25H62.5zM62.5 187.5H500V125H62.5zM343.75 500V656.25H375A125.15625 125.15625 0 0 1 500 781.25V875H406.25A124.3125 124.3125 0 0 1 320.40625 840.40625A187.59375 187.59375 0 0 1 156.25 937.5H62.5V843.75A187.71875 187.71875 0 0 1 250 656.25H281.25V500H62.5V437.5H500V500zM406.25 812.5H437.5V781.25A62.5625 62.5625 0 0 0 375 718.75H343.75V750A62.5625 62.5625 0 0 0 406.25 812.5zM250 718.75A125.15625 125.15625 0 0 0 125 843.75V875H156.25A125.15625 125.15625 0 0 0 281.25 750V718.75z" />
    <glyph glyph-name="carbon:ai-results"
      unicode="&#xE01C;"
      horiz-adv-x="1000" d="M500 750A187.1875 187.1875 0 0 1 795.96875 597.34375L893.3125 500L937.5 544.1875L840.1562499999999 641.53125A187.40625 187.40625 0 1 1 500 750zM562.5 750A125 125 0 1 0 687.5 625A125.15625 125.15625 0 0 0 562.5 750zM343.75 250H656.25V187.5H343.75zM406.25 125H593.75V62.5H406.25zM337.96875 433.125A224.53125 224.53125 0 0 0 250 625A250.15625 250.15625 0 0 0 437.5 866.78125L425.4375 928.125A312.78125 312.78125 0 0 1 187.5 625A286.875 286.875 0 0 1 295.625 387C327.25 357.78125 343.75 341.21875 343.75 312.5H406.25C406.25 370 371.5625 402.0625 337.96875 433.125zM720.3125 500A300 300 0 0 0 661.8125 433.03125C628.34375 402.03125 593.75 370 593.75 312.5H656.25C656.25 341.25 672.6875 357.8125 704.21875 387.0625A342.6875 342.6875 0 0 1 778.25 475.59375z" />
    <glyph glyph-name="carbon:ai-results-high"
      unicode="&#xE01D;"
      horiz-adv-x="1000" d="M343.75 250H656.25V187.5H343.75zM406.25 125H593.75V62.5H406.25zM720.28125 500A300.4375 300.4375 0 0 0 661.8125 433.03125C628.34375 402.03125 593.75 370 593.75 312.5H656.25C656.25 341.25 672.6875 357.8125 704.21875 387.0625A312.15625 312.15625 0 0 1 790.0625 500zM500 875A247.7500000000001 247.7500000000001 0 0 0 615.3125 846.5625L643.3125000000001 902.5A312.1875 312.1875 0 0 1 187.5 625A286.875 286.875 0 0 1 295.625 387C327.25 357.78125 343.75 341.21875 343.75 312.5H406.25C406.25 370 371.5625 402.0625 337.9375 433.125A224.53125 224.53125 0 0 0 250 625A250.3125 250.3125 0 0 0 500 875zM906.25 562.5H593.75A31.25 31.25 0 0 0 565.8125 607.71875L722.0625 920.21875A31.25 31.25 0 0 0 777.9375000000001 920.21875L934.1875000000002 607.71875A31.25 31.25 0 0 0 906.25 562.5zM644.3125000000001 625H855.6875L750 836.375z" />
    <glyph glyph-name="carbon:ai-results-low"
      unicode="&#xE01E;"
      horiz-adv-x="1000" d="M343.75 250H656.25V187.5H343.75zM406.25 125H593.75V62.5H406.25zM337.96875 433.125A224.53125 224.53125 0 0 0 250 625A250.3125 250.3125 0 0 0 500 875V937.5A312.84375 312.84375 0 0 1 187.5 625A286.875 286.875 0 0 1 295.625 387C327.25 357.78125 343.75 341.21875 343.75 312.5H406.25C406.25 370 371.5625 402.0625 337.96875 433.125zM750 562.5A187.5 187.5 0 1 0 937.5 750A187.71875 187.71875 0 0 0 750 562.5zM750 875A125 125 0 1 1 875 750A125.15625 125.15625 0 0 1 750 875zM720 500A296.4375 296.4375 0 0 0 661.8124999999999 433.03125C628.34375 402.03125 593.75 370 593.75 312.5H656.25C656.25 341.25 672.6875 357.8125 704.21875 387.0625A312 312 0 0 1 789.84375 500z" />
    <glyph glyph-name="carbon:ai-results-medium"
      unicode="&#xE01F;"
      horiz-adv-x="1000" d="M343.75 250H656.25V187.5H343.75zM406.25 125H593.75V62.5H406.25zM337.96875 433.125A224.53125 224.53125 0 0 0 250 625A250.3125 250.3125 0 0 0 500 875V937.5A312.84375 312.84375 0 0 1 187.5 625A286.875 286.875 0 0 1 295.625 387C327.25 357.78125 343.75 341.21875 343.75 312.5H406.25C406.25 370 371.5625 402.0625 337.96875 433.125zM875 562.5H625A62.5625 62.5625 0 0 0 562.5 625V875A62.5625 62.5625 0 0 0 625 937.5H875A62.5625 62.5625 0 0 0 937.5 875V625A62.5625 62.5625 0 0 0 875 562.5zM625 875V625H875V875zM720 500A296.4375 296.4375 0 0 0 661.8124999999999 433.03125C628.34375 402.03125 593.75 370 593.75 312.5H656.25C656.25 341.25 672.6875 357.8125 704.21875 387.0625A312 312 0 0 1 789.84375 500z" />
    <glyph glyph-name="carbon:ai-results-urgent"
      unicode="&#xE020;"
      horiz-adv-x="1000" d="M343.75 250H656.25V187.5H343.75zM406.25 125H593.75V62.5H406.25zM337.96875 433.125A224.53125 224.53125 0 0 0 250 625A250.3125 250.3125 0 0 0 500 875V937.5A312.84375 312.84375 0 0 1 187.5 625A286.875 286.875 0 0 1 295.625 387C327.25 357.78125 343.75 341.21875 343.75 312.5H406.25C406.25 370 371.5625 402.0625 337.96875 433.125zM625 937.5H687.5V718.75H625zM656.25 656.25A46.875 46.875 0 1 1 703.125 609.375A46.875 46.875 0 0 1 656.25 656.25zM812.5 937.5H875V718.75H812.5zM843.75 656.25A46.875 46.875 0 1 1 890.625 609.375A46.875 46.875 0 0 1 843.75 656.25zM720 500A296.4375 296.4375 0 0 0 661.8124999999999 433.03125C628.34375 402.03125 593.75 370 593.75 312.5H656.25C656.25 341.25 672.6875 357.8125 704.21875 387.0625A312 312 0 0 1 789.84375 500z" />
    <glyph glyph-name="carbon:ai-results-very-high"
      unicode="&#xE021;"
      horiz-adv-x="1000" d="M750 937.5H812.5V718.75H750zM781.25 656.25A46.875 46.875 0 1 1 828.125 609.375A46.875 46.875 0 0 1 781.25 656.25zM343.75 250H656.25V187.5H343.75zM406.25 125H593.75V62.5H406.25zM720.28125 500A300.4375 300.4375 0 0 0 661.8125 433.03125C628.34375 402.03125 593.75 370 593.75 312.5H656.25C656.25 341.25 672.6875 357.8125 704.21875 387.0625A312.15625 312.15625 0 0 1 790.0625 500zM500 875A248.125 248.125 0 0 0 625 841.15625V911.25A312.15625 312.15625 0 0 1 187.5 625A286.875 286.875 0 0 1 295.625 387C327.25 357.78125 343.75 341.21875 343.75 312.5H406.25C406.25 370 371.5625 402.0625 337.9375 433.125A224.53125 224.53125 0 0 0 250 625A250.3125 250.3125 0 0 0 500 875z" />
    <glyph glyph-name="carbon:ai-status"
      unicode="&#xE022;"
      horiz-adv-x="1000" d="M343.75 250H656.25V187.5H343.75zM406.25 125H593.75V62.5H406.25zM720 500A296.4375 296.4375 0 0 0 661.8124999999999 433.03125C628.34375 402.03125 593.75 370 593.75 312.5H656.25C656.25 341.25 672.6875 357.8125 704.21875 387.0625A312 312 0 0 1 789.84375 500zM625 562.5A31.25 31.25 0 0 0 597.0625 579.78125L543.15625 687.5H437.5V750H562.5A31.25 31.25 0 0 0 590.4375 732.71875L625 663.65625L722.0625 857.71875A32.5625 32.5625 0 0 0 777.9375000000001 857.71875L831.84375 750H937.5V687.5H812.5A31.25 31.25 0 0 0 784.5625 704.78125L750 773.84375L652.9375 579.78125A31.25 31.25 0 0 0 625 562.5zM337.96875 433.125A224.53125 224.53125 0 0 0 250 625A250.3125 250.3125 0 0 0 500 875V937.5A312.84375 312.84375 0 0 1 187.5 625A286.875 286.875 0 0 1 295.625 387C327.25 357.78125 343.75 341.21875 343.75 312.5H406.25C406.25 370 371.5625 402.0625 337.96875 433.125z" />
    <glyph glyph-name="carbon:ai-status-complete"
      unicode="&#xE023;"
      horiz-adv-x="1000" d="M343.75 250H656.25V187.5H343.75zM406.25 125H593.75V62.5H406.25zM337.96875 433.125A224.53125 224.53125 0 0 0 250 625A250.3125 250.3125 0 0 0 500 875V937.5A312.84375 312.84375 0 0 1 187.5 625A286.875 286.875 0 0 1 295.625 387C327.25 357.78125 343.75 341.21875 343.75 312.5H406.25C406.25 370 371.5625 402.0625 337.96875 433.125zM656.25 700.3125L544.0625 812.5L500 768.4375L656.25 612.1875L937.5 893.4375L893.4375 937.5L656.25 700.3125zM743.75 562.5A227.5000000000001 227.5000000000001 0 0 0 661.8125 433.03125C628.34375 402.03125 593.75 370 593.75 312.5H656.25C656.25 341.25 672.6875 357.8125 704.21875 387.0625A285.7187500000001 285.7187500000001 0 0 1 807.5 562.5z" />
    <glyph glyph-name="carbon:ai-status-failed"
      unicode="&#xE024;"
      horiz-adv-x="1000" d="M343.75 250H656.25V187.5H343.75zM406.25 125H593.75V62.5H406.25zM337.96875 433.125A224.53125 224.53125 0 0 0 250 625A250.3125 250.3125 0 0 0 500 875V937.5A312.84375 312.84375 0 0 1 187.5 625A286.875 286.875 0 0 1 295.625 387C327.25 357.78125 343.75 341.21875 343.75 312.5H406.25C406.25 370 371.5625 402.0625 337.96875 433.125zM743.75 562.5A227.5000000000001 227.5000000000001 0 0 0 661.8125 433.03125C628.34375 402.03125 593.75 370 593.75 312.5H656.25C656.25 341.25 672.6875 357.8125 704.21875 387.0625A285.7187500000001 285.7187500000001 0 0 1 807.5 562.5zM937.5 893.4375L893.4375 937.5L781.25 825.3125L669.0625 937.5L625 893.4375L737.1875 781.25L625 669.0625L669.0625 625L781.25 737.1875L893.4375 625L937.5 669.0625L825.3125 781.25L937.5 893.4375z" />
    <glyph glyph-name="carbon:ai-status-in-progress"
      unicode="&#xE025;"
      horiz-adv-x="1000" d="M343.75 250H656.25V187.5H343.75zM406.25 125H593.75V62.5H406.25zM337.96875 433.125A224.53125 224.53125 0 0 0 250 625A250.3125 250.3125 0 0 0 500 875V937.5A312.84375 312.84375 0 0 1 187.5 625A286.875 286.875 0 0 1 295.625 387C327.25 357.78125 343.75 341.21875 343.75 312.5H406.25C406.25 370 371.5625 402.0625 337.96875 433.125zM661.8125 433.03125C628.34375 402.03125 593.75 370 593.75 312.5H656.25C656.25 341.25 672.6875 357.8125 704.21875 387.0625A287.28125 287.28125 0 0 1 812.5 625H750A225.09375 225.09375 0 0 0 661.8125 433.03125zM531.25 765.625A46.875 46.875 0 0 1 625 765.625A46.875 46.875 0 0 1 531.25 765.625M843.75 765.625A46.875 46.875 0 0 1 937.5 765.625A46.875 46.875 0 0 1 843.75 765.625M687.5 765.625A46.875 46.875 0 0 1 781.25 765.625A46.875 46.875 0 0 1 687.5 765.625" />
    <glyph glyph-name="carbon:ai-status-queued"
      unicode="&#xE026;"
      horiz-adv-x="1000" d="M343.75 250H656.25V187.5H343.75zM406.25 125H593.75V62.5H406.25zM337.96875 433.125A224.53125 224.53125 0 0 0 250 625A250.3125 250.3125 0 0 0 500 875V937.5A312.84375 312.84375 0 0 1 187.5 625A286.875 286.875 0 0 1 295.625 387C327.25 357.78125 343.75 341.21875 343.75 312.5H406.25C406.25 370 371.5625 402.0625 337.96875 433.125zM661.8125 433.03125C628.34375 402.03125 593.75 370 593.75 312.5H656.25C656.25 341.25 672.6875 357.8125 704.21875 387.0625A287.28125 287.28125 0 0 1 812.5 625H750A225.09375 225.09375 0 0 0 661.8125 433.03125zM562.5 812.5H875V750H562.5z" />
    <glyph glyph-name="carbon:ai-status-rejected"
      unicode="&#xE027;"
      horiz-adv-x="1000" d="M343.75 250H656.25V187.5H343.75zM406.25 125H593.75V62.5H406.25zM337.96875 433.125A224.53125 224.53125 0 0 0 250 625A250.3125 250.3125 0 0 0 500 875V937.5A312.84375 312.84375 0 0 1 187.5 625A286.875 286.875 0 0 1 295.625 387C327.25 357.78125 343.75 341.21875 343.75 312.5H406.25C406.25 370 371.5625 402.0625 337.96875 433.125zM720 500A296.4375 296.4375 0 0 0 661.8124999999999 433.03125C628.34375 402.03125 593.75 370 593.75 312.5H656.25C656.25 341.25 672.6875 357.8125 704.21875 387.0625A312 312 0 0 1 789.84375 500zM937.5 750A187.5 187.5 0 1 1 750 562.5A187.71875 187.71875 0 0 1 937.5 750zM875 750A123.5 123.5 0 0 0 857.28125 686.90625L686.90625 857.28125A123.53125 123.53125 0 0 0 750 875A125.15625 125.15625 0 0 0 875 750zM625 750A123.5 123.5 0 0 0 642.71875 813.09375L813.09375 642.71875A123.53125 123.53125 0 0 0 750 625A125.15625 125.15625 0 0 0 625 750z" />
    <glyph glyph-name="carbon:airline-digital-gate"
      unicode="&#xE028;"
      horiz-adv-x="1000" d="M562.5 281.25H500V343.75A93.84375 93.84375 0 0 1 406.25 437.5H281.25A93.84375 93.84375 0 0 1 187.5 343.75V281.25H125V343.75A156.4375 156.4375 0 0 0 281.25 500H406.25A156.4375 156.4375 0 0 0 562.5 343.75zM343.75 812.5A93.75 93.75 0 1 0 250 718.75A93.75 93.75 0 0 0 343.75 812.5M343.75 875A156.25 156.25 0 1 1 500 718.75A156.25 156.25 0 0 1 343.75 875zM62.5 187.5H937.5V125H62.5zM998.9375 633.09375A31.25 31.25 0 0 1 960.65625 655.1875L864.21875 629.375L750 781.25L718.75 772.875L764.3125 602.625L677.875 579.5L625 649.8125L593.75 641.4375L622.9375 532.4375A31.25 31.25 0 0 1 661.1875 510.3125L976.8125000000002 594.8125A31.25 31.25 0 0 1 998.9375 633.09375z" />
    <glyph glyph-name="carbon:airline-manage-gates"
      unicode="&#xE029;"
      horiz-adv-x="1000" d="M562.5 281.25H500V343.75A93.84375 93.84375 0 0 1 406.25 437.5H281.25A93.84375 93.84375 0 0 1 187.5 343.75V281.25H125V343.75A156.4375 156.4375 0 0 0 281.25 500H406.25A156.4375 156.4375 0 0 0 562.5 343.75zM343.75 812.5A93.75 93.75 0 1 0 250 718.75A93.75 93.75 0 0 0 343.75 812.5M343.75 875A156.25 156.25 0 1 1 500 718.75A156.25 156.25 0 0 1 343.75 875zM62.5 187.5H937.5V125H62.5zM687.5 875V812.5H830.8125L625 606.6875L669.1875 562.5L875 768.3125V625H937.5V875H687.5z" />
    <glyph glyph-name="carbon:airline-passenger-care"
      unicode="&#xE02A;"
      horiz-adv-x="1000" d="M562.5 281.25H500V343.75A93.84375 93.84375 0 0 1 406.25 437.5H281.25A93.84375 93.84375 0 0 1 187.5 343.75V281.25H125V343.75A156.4375 156.4375 0 0 0 281.25 500H406.25A156.4375 156.4375 0 0 0 562.5 343.75zM343.75 812.5A93.75 93.75 0 1 0 250 718.75A93.75 93.75 0 0 0 343.75 812.5M343.75 875A156.25 156.25 0 1 1 500 718.75A156.25 156.25 0 0 1 343.75 875zM62.5 187.5H937.5V125H62.5zM853.21875 750A83.1875 83.1875 0 0 1 793.59375 724.8125L781.25 712.1875L768.90625 724.84375A83.1875 83.1875 0 0 1 649.65625 724.84375A87.5 87.5 0 0 1 649.65625 603.09375L781.25 468.75L912.8125 603.0625A87.5 87.5 0 0 1 912.8125 724.8125A83.1875 83.1875 0 0 1 853.25 750z" />
    <glyph glyph-name="carbon:airline-rapid-board"
      unicode="&#xE02B;"
      horiz-adv-x="1000" d="M562.5 281.25H500V343.75A93.84375 93.84375 0 0 1 406.25 437.5H281.25A93.84375 93.84375 0 0 1 187.5 343.75V281.25H125V343.75A156.4375 156.4375 0 0 0 281.25 500H406.25A156.4375 156.4375 0 0 0 562.5 343.75zM343.75 812.5A93.75 93.75 0 1 0 250 718.75A93.75 93.75 0 0 0 343.75 812.5M343.75 875A156.25 156.25 0 1 1 500 718.75A156.25 156.25 0 0 1 343.75 875zM62.5 187.5H937.5V125H62.5zM937.5 750H875V812.5H812.5V875H937.5V750zM593.75 875H718.75V812.5H656.25V750H593.75V875zM875 593.75H937.5V531.25H875zM812.5 656.25H875V593.75H812.5zM593.75 656.25H656.25V593.75H718.75V531.25H593.75V656.25z" />
    <glyph glyph-name="carbon:airplay"
      unicode="&#xE02C;"
      horiz-adv-x="1000" d="M718.625 62.5H281.375A31.3125 31.3125 0 0 0 255.71875 111.78125L474.4062500000001 424.15625A31.25 31.25 0 0 0 525.5937500000001 424.15625L744.2812500000001 111.78125A31.3125 31.3125 0 0 0 718.6562500000001 62.5zM341.25 125H658.75L500 351.75zM875 250H750V312.5H875V812.5H125V312.5H250V250H125A62.5625 62.5625 0 0 0 62.5 312.5V812.5A62.5625 62.5625 0 0 0 125 875H875A62.5625 62.5625 0 0 0 937.5 812.5V312.5A62.5625 62.5625 0 0 0 875 250z" />
    <glyph glyph-name="carbon:airplay-filled"
      unicode="&#xE02D;"
      horiz-adv-x="1000" d="M718.625 62.5H281.375A31.3125 31.3125 0 0 0 255.71875 111.78125L474.4062500000001 424.15625A31.25 31.25 0 0 0 525.5937500000001 424.15625L744.2812500000001 111.78125A31.3125 31.3125 0 0 0 718.6562500000001 62.5zM875 250H750V312.5H875V812.5H125V312.5H250V250H125A62.5625 62.5625 0 0 0 62.5 312.5V812.5A62.5625 62.5625 0 0 0 125 875H875A62.5625 62.5625 0 0 0 937.5 812.5V312.5A62.5625 62.5625 0 0 0 875 250z" />
    <glyph glyph-name="carbon:airport-01"
      unicode="&#xE02E;"
      horiz-adv-x="1000" d="M531.25 546.875L718.75 468.75V531.25L531.25 625V718.75A31.25 31.25 0 0 1 468.75 718.75V625L281.25 531.25V468.75L468.75 546.875V375L375 312.5V281.25L500 312.5L625 281.25V312.5L531.25 375zM500 62.5A437.5 437.5 0 1 0 937.5 500A438 438 0 0 0 500 62.5zM500 875A375 375 0 1 1 875 500A375.4375 375.4375 0 0 1 500 875z" />
    <glyph glyph-name="carbon:airport-02"
      unicode="&#xE02F;"
      horiz-adv-x="1000" d="M718.75 468.75H606.6875L500 593.75H437.5L518.3125 468.75H335L296.875 531.25H250L283.03125 427.96875A31.25 31.25 0 0 1 312.78125 406.25H718.75A31.25 31.25 0 0 1 718.75 468.75zM500 62.5A437.5 437.5 0 1 0 937.5 500A438 438 0 0 0 500 62.5zM500 875A375 375 0 1 1 875 500A375.4375 375.4375 0 0 1 500 875z" />
    <glyph glyph-name="carbon:airport-location"
      unicode="&#xE030;"
      horiz-adv-x="1000" d="M937.5 531.25H747.8125A250.25 250.25 0 0 1 531.25 747.8125V937.5H468.75V747.8125A250.25 250.25 0 0 1 252.1875 531.25H62.5V468.75H252.1875A250.25 250.25 0 0 1 468.75 252.1875V62.5H531.25V252.1875A250.25 250.25 0 0 1 747.8125 468.75H937.5zM500 312.5A187.5 187.5 0 1 0 687.5 500A187.71875 187.71875 0 0 0 500 312.5z" />
    <glyph glyph-name="carbon:alarm"
      unicode="&#xE031;"
      horiz-adv-x="1000" d="M500 125A343.75 343.75 0 1 0 843.75 468.75A343.75 343.75 0 0 0 500 125zM500 750A281.25 281.25 0 1 1 781.25 468.75A281.25 281.25 0 0 1 500 750zM580.9375 343.75L468.75 455.9375V656.25H531.25V481.875L625 387.8125000000001L580.9375 343.75zM125 762.75L236.9375 874.90625L281.1875 830.75L169.25 718.59375zM718.75 831L762.96875 875.15625L874.875 763L830.65625 718.84375z" />
    <glyph glyph-name="carbon:alarm-add"
      unicode="&#xE032;"
      horiz-adv-x="1000" d="M500 125A343.75 343.75 0 1 0 843.75 468.75A343.75 343.75 0 0 0 500 125zM500 750A281.25 281.25 0 1 1 781.25 468.75A281.25 281.25 0 0 1 500 750zM125 762.75L236.9375 874.90625L281.1875 830.75L169.25 718.59375zM718.75 831L762.96875 875.15625L874.875 763L830.65625 718.84375zM656.25 500H531.25V625H468.75V500H343.75V437.5H468.75V312.5H531.25V437.5H656.25V500z" />
    <glyph glyph-name="carbon:alarm-subtract"
      unicode="&#xE033;"
      horiz-adv-x="1000" d="M500 125A343.75 343.75 0 1 0 843.75 468.75A343.75 343.75 0 0 0 500 125zM500 750A281.25 281.25 0 1 1 781.25 468.75A281.25 281.25 0 0 1 500 750zM125 762.75L236.9375 874.90625L281.1875 830.75L169.25 718.59375zM718.75 831L762.96875 875.15625L874.875 763L830.65625 718.84375zM343.75 500H656.25V437.5H343.75z" />
    <glyph glyph-name="carbon:align-box-bottom-center"
      unicode="&#xE034;"
      horiz-adv-x="1000" d="M812.5 62.5H187.5A62.5625 62.5625 0 0 0 125 125V875A62.5625 62.5625 0 0 0 187.5 937.5H812.5A62.5625 62.5625 0 0 0 875 875V125A62.5625 62.5625 0 0 0 812.5 62.5zM187.5 875V125H812.5V875zM687.5 375H312.5V437.5H687.5zM625 218.75H375V281.25H625z" />
    <glyph glyph-name="carbon:align-box-bottom-left"
      unicode="&#xE035;"
      horiz-adv-x="1000" d="M812.5 62.5H187.5A62.5625 62.5625 0 0 0 125 125V875A62.5625 62.5625 0 0 0 187.5 937.5H812.5A62.5625 62.5625 0 0 0 875 875V125A62.5625 62.5625 0 0 0 812.5 62.5zM187.5 875V125H812.5V875zM281.25 437.5H625V375H281.25zM281.25 281.25H500V218.75H281.25z" />
    <glyph glyph-name="carbon:align-box-bottom-right"
      unicode="&#xE036;"
      horiz-adv-x="1000" d="M812.5 62.5H187.5A62.5625 62.5625 0 0 0 125 125V875A62.5625 62.5625 0 0 0 187.5 937.5H812.5A62.5625 62.5625 0 0 0 875 875V125A62.5625 62.5625 0 0 0 812.5 62.5zM187.5 875V125H812.5V875zM718.75 375H375V437.5H718.75zM718.75 218.75H500V281.25H718.75z" />
    <glyph glyph-name="carbon:align-box-middle-center"
      unicode="&#xE037;"
      horiz-adv-x="1000" d="M812.5 62.5H187.5A62.5625 62.5625 0 0 0 125 125V875A62.5625 62.5625 0 0 0 187.5 937.5H812.5A62.5625 62.5625 0 0 0 875 875V125A62.5625 62.5625 0 0 0 812.5 62.5zM187.5 875V125H812.5V875zM687.5 531.25H312.5V593.75H687.5zM625 375H375V437.5H625z" />
    <glyph glyph-name="carbon:align-box-middle-left"
      unicode="&#xE038;"
      horiz-adv-x="1000" d="M812.5 62.5H187.5A62.5625 62.5625 0 0 0 125 125V875A62.5625 62.5625 0 0 0 187.5 937.5H812.5A62.5625 62.5625 0 0 0 875 875V125A62.5625 62.5625 0 0 0 812.5 62.5zM187.5 875V125H812.5V875zM281.25 593.75H625V531.25H281.25zM281.25 437.5H500V375H281.25z" />
    <glyph glyph-name="carbon:align-box-middle-right"
      unicode="&#xE039;"
      horiz-adv-x="1000" d="M812.5 62.5H187.5A62.5625 62.5625 0 0 0 125 125V875A62.5625 62.5625 0 0 0 187.5 937.5H812.5A62.5625 62.5625 0 0 0 875 875V125A62.5625 62.5625 0 0 0 812.5 62.5zM187.5 875V125H812.5V875zM718.75 531.25H375V593.75H718.75zM718.75 375H500V437.5H718.75z" />
    <glyph glyph-name="carbon:align-box-top-center"
      unicode="&#xE03A;"
      horiz-adv-x="1000" d="M812.5 62.5H187.5A62.5625 62.5625 0 0 0 125 125V875A62.5625 62.5625 0 0 0 187.5 937.5H812.5A62.5625 62.5625 0 0 0 875 875V125A62.5625 62.5625 0 0 0 812.5 62.5zM187.5 875V125H812.5V875zM687.5 718.75H312.5V781.25H687.5zM625 562.5H375V625H625z" />
    <glyph glyph-name="carbon:align-box-top-left"
      unicode="&#xE03B;"
      horiz-adv-x="1000" d="M812.5 62.5H187.5A62.5625 62.5625 0 0 0 125 125V875A62.5625 62.5625 0 0 0 187.5 937.5H812.5A62.5625 62.5625 0 0 0 875 875V125A62.5625 62.5625 0 0 0 812.5 62.5zM187.5 875V125H812.5V875zM281.25 781.25H625V718.75H281.25zM281.25 625H500V562.5H281.25z" />
    <glyph glyph-name="carbon:align-box-top-right"
      unicode="&#xE03C;"
      horiz-adv-x="1000" d="M812.5 62.5H187.5A62.5625 62.5625 0 0 0 125 125V875A62.5625 62.5625 0 0 0 187.5 937.5H812.5A62.5625 62.5625 0 0 0 875 875V125A62.5625 62.5625 0 0 0 812.5 62.5zM187.5 875V125H812.5V875zM718.75 718.75H375V781.25H718.75zM718.75 562.5H500V625H718.75z" />
    <glyph glyph-name="carbon:align-horizontal-center"
      unicode="&#xE03D;"
      horiz-adv-x="1000" d="M750 437.5H531.25V562.5H625A62.5625 62.5625 0 0 1 687.5 625V750A62.5625 62.5625 0 0 1 625 812.5H531.25V937.5H468.75V812.5H375A62.5625 62.5625 0 0 1 312.5 750V625A62.5625 62.5625 0 0 1 375 562.5H468.75V437.5H250A62.5625 62.5625 0 0 1 187.5 375V250A62.5625 62.5625 0 0 1 250 187.5H468.75V62.5H531.25V187.5H750A62.5625 62.5625 0 0 1 812.5 250V375A62.5625 62.5625 0 0 1 750 437.5zM375 750H625V625H375zM750 250H250V375H750z" />
    <glyph glyph-name="carbon:align-horizontal-left"
      unicode="&#xE03E;"
      horiz-adv-x="1000" d="M812.5 187.5H343.75A62.5625 62.5625 0 0 0 281.25 250V375A62.5625 62.5625 0 0 0 343.75 437.5H812.5A62.5625 62.5625 0 0 0 875 375V250A62.5625 62.5625 0 0 0 812.5 187.5zM812.5 375.03125L343.75 375V250H812.5zM562.5 562.5H343.75A62.5625 62.5625 0 0 0 281.25 625V750A62.5625 62.5625 0 0 0 343.75 812.5H562.5A62.5625 62.5625 0 0 0 625 750V625A62.5625 62.5625 0 0 0 562.5 562.5zM562.5 750.03125L343.75 750V625H562.5zM125 937.5H187.5V62.5H125z" />
    <glyph glyph-name="carbon:align-horizontal-right"
      unicode="&#xE03F;"
      horiz-adv-x="1000" d="M125 250V375A62.5625 62.5625 0 0 0 187.5 437.5H656.25A62.5625 62.5625 0 0 0 718.75 375V250A62.5625 62.5625 0 0 0 656.25 187.5H187.5A62.5625 62.5625 0 0 0 125 250zM187.5 250H656.25V375L187.5 375.03125zM375 625V750A62.5625 62.5625 0 0 0 437.5 812.5H656.25A62.5625 62.5625 0 0 0 718.75 750V625A62.5625 62.5625 0 0 0 656.25 562.5H437.5A62.5625 62.5625 0 0 0 375 625zM437.5 625H656.25V750L437.5 750.03125zM875 62.5H812.5V937.5H875z" />
    <glyph glyph-name="carbon:align-vertical-bottom"
      unicode="&#xE040;"
      horiz-adv-x="1000" d="M62.5 187.5H937.5V125H62.5zM750 281.25H625A62.5625 62.5625 0 0 0 562.5 343.75V562.5A62.5625 62.5625 0 0 0 625 625H750A62.5625 62.5625 0 0 0 812.5 562.5V343.75A62.5625 62.5625 0 0 0 750 281.25zM625 562.5V343.75H750.03125L750 562.5zM375 281.25H250A62.5625 62.5625 0 0 0 187.5 343.75V812.5A62.5625 62.5625 0 0 0 250 875H375A62.5625 62.5625 0 0 0 437.5 812.5V343.75A62.5625 62.5625 0 0 0 375 281.25zM250 812.5V343.75H375.0312500000001L375 812.5z" />
    <glyph glyph-name="carbon:align-vertical-center"
      unicode="&#xE041;"
      horiz-adv-x="1000" d="M937.5 531.25H812.5V625A62.5625 62.5625 0 0 1 750 687.5H625A62.5625 62.5625 0 0 1 562.5 625V531.25H437.5V750A62.5625 62.5625 0 0 1 375 812.5H250A62.5625 62.5625 0 0 1 187.5 750V531.25H62.5V468.75H187.5V250A62.5625 62.5625 0 0 1 250 187.5H375A62.5625 62.5625 0 0 1 437.5 250V468.75H562.5V375A62.5625 62.5625 0 0 1 625 312.5H750A62.5625 62.5625 0 0 1 812.5 375V468.75H937.5zM250 250V750H375L375.03125 250zM625 375V625H750L750.03125 375z" />
    <glyph glyph-name="carbon:align-vertical-top"
      unicode="&#xE042;"
      horiz-adv-x="1000" d="M750 375H625A62.5625 62.5625 0 0 0 562.5 437.5V656.25A62.5625 62.5625 0 0 0 625 718.75H750A62.5625 62.5625 0 0 0 812.5 656.25V437.5A62.5625 62.5625 0 0 0 750 375zM625 656.25V437.5H750.03125L750 656.25zM375 125H250A62.5625 62.5625 0 0 0 187.5 187.5V656.25A62.5625 62.5625 0 0 0 250 718.75H375A62.5625 62.5625 0 0 0 437.5 656.25V187.5A62.5625 62.5625 0 0 0 375 125zM250 656.25V187.5H375.0312500000001L375 656.25zM62.5 875H937.5V812.5H62.5z" />
    <glyph glyph-name="carbon:analytics"
      unicode="&#xE043;"
      horiz-adv-x="1000" d="M125 937.5H62.5V125A62.5 62.5 0 0 1 125 62.5H937.5V125H125zM937.5 718.75H718.75V656.25H830.9375L593.75 419.0625L459.6875 553.4375A31.25 31.25 0 0 1 415.3125000000001 553.4375L187.5 325.3125L231.5625 281.25L437.5 487.1875L571.5625 352.8125A31.25 31.25 0 0 1 615.9375 352.8125L875 612.1875V500H937.5z" />
    <glyph glyph-name="carbon:analytics-custom"
      unicode="&#xE044;"
      horiz-adv-x="1000" d="M928.34375 397.09375L834.59375 490.84375A31.25 31.25 0 0 1 790.40625 490.84375L500 200.4375V62.5H637.9375L928.34375 352.90625A31.25 31.25 0 0 1 928.34375 397.09375zM612.0625 125H562.5V174.5625L718.75 330.8125L768.3125 281.25zM812.5 325.4375L762.9375 375L812.5 424.5625L862.0625 375zM937.5 875H718.75V812.5H830.8125L593.75 575.4375L459.59375 709.59375A31.25 31.25 0 0 1 415.4062500000001 709.59375L187.5 481.6875L231.6875 437.5L437.5 643.3125L571.65625 509.15625A31.25 31.25 0 0 1 615.84375 509.15625L875 768.3125V656.25H937.5zM125 937.5H62.5V125A62.5 62.5 0 0 1 125 62.5H375V125H125z" />
    <glyph glyph-name="carbon:analytics-reference"
      unicode="&#xE045;"
      horiz-adv-x="1000" d="M125 375V312.5H268.3125L62.5 106.6875L106.6875 62.5L312.5 268.3125V125H375V375H125zM937.5 875H718.75V812.5H830.8125L593.75 575.4375L459.59375 709.59375A31.25 31.25 0 0 1 415.4062500000001 709.59375L250 544.1875L294.1875 500L437.5 643.3125L571.65625 509.15625A31.25 31.25 0 0 1 615.84375 509.15625L875 768.3125V656.25H937.5zM500 125H937.5V62.5H500zM62.5 937.5H125V500H62.5z" />
    <glyph glyph-name="carbon:angle"
      unicode="&#xE046;"
      horiz-adv-x="1000" d="M281.25 250A109.6875 109.6875 0 0 1 253.75 308.125L551.5625 826.25L497.4999999999999 857.5L198.4375 340A95.625 95.625 0 0 1 171.875 343.75A109.375 109.375 0 1 1 270.3125 187.5H875V250zM171.875 187.5A46.875 46.875 0 1 0 218.75 234.375A46.875 46.875 0 0 0 171.875 187.5zM687.5 343.75H750A406.25 406.25 0 0 1 580.625 673.75L544.3749999999999 623.125A343.75 343.75 0 0 0 687.5 343.75z" />
    <glyph glyph-name="carbon:annotation-visibility"
      unicode="&#xE047;"
      horiz-adv-x="1000" d="M875 875H125A62.5 62.5 0 0 1 62.5 812.5V187.5A62.5 62.5 0 0 1 125 125H875A62.5 62.5 0 0 1 937.5 187.5V812.5A62.5 62.5 0 0 1 875 875zM875 187.5H125V812.5H875zM656.25 375H406.25A109.6875 109.6875 0 0 1 378.75 433.125L497.4999999999999 640.625L443.125 671.875L325 465A104.6875 104.6875 0 0 1 296.875 468.75A109.375 109.375 0 1 1 395.3125 312.5H656.25zM296.875 312.5A46.875 46.875 0 1 0 343.75 359.375A46.875 46.875 0 0 0 296.875 312.5zM593.75 750H812.5V687.5H593.75zM593.75 625H718.75V562.5H593.75z" />
    <glyph glyph-name="carbon:aperture"
      unicode="&#xE048;"
      horiz-adv-x="1000" d="M500 937.5A437.5 437.5 0 1 1 937.5 500A437.5 437.5 0 0 1 500 937.5zM870 558.125L687.5 452.5V824.375A375 375 0 0 0 870 558.125zM375 416.25V583.75L500 656.25L625 584.0625V416.5625L500 343.75zM625 853.75V656.25L323.125 830.625A371.875 371.875 0 0 0 625 853.125zM265 791.25L437.5 692.1875L125 511.875A375 375 0 0 0 265 791.875zM130 442.1875L312.5 547.8125V175.6249999999999A375 375 0 0 0 130 442.1875zM375 146.875V343.75L677.1875 169.375A372.5 372.5 0 0 0 500 125A376.5625000000001 376.5625000000001 0 0 0 375 146.875zM735 209.375L562.5 308.125L875 488.4374999999999A375 375 0 0 0 735 208.1249999999999z" />
    <glyph glyph-name="carbon:api"
      unicode="&#xE049;"
      horiz-adv-x="1000" d="M812.5 312.5A120.625 120.625 0 0 1 750 294.6875L653.4375 391.5625A187.5 187.5 0 0 1 653.4375 608.4375L750 705.3125A120.625 120.625 0 0 1 812.5 687.5A125 125 0 1 1 687.5 812.5A120.625 120.625 0 0 1 705.3125 750L608.4375 653.4375A187.5 187.5 0 0 1 391.5625 653.4375L294.6875 750A120.625 120.625 0 0 1 312.5 812.5A125 125 0 1 1 187.5 687.5A120.625 120.625 0 0 1 250 705.3125L346.5625 608.4375A187.5 187.5 0 0 1 346.5625 391.5625L250 294.6875A120.625 120.625 0 0 1 187.5 312.5A125 125 0 1 1 312.5 187.5A120.625 120.625 0 0 1 294.6875 250L391.5625 346.5625A187.5 187.5 0 0 1 608.4375 346.5625L705.3125 250A120.625 120.625 0 0 1 687.5 187.5A125 125 0 1 1 812.5 312.5zM812.5 875A62.5 62.5 0 1 0 750 812.5A62.5 62.5 0 0 0 812.5 875zM125 812.5A62.5 62.5 0 1 0 187.5 750A62.5 62.5 0 0 0 125 812.5zM187.5 125A62.5 62.5 0 1 0 250 187.5A62.5 62.5 0 0 0 187.5 125zM500 375A125 125 0 1 0 625 500A125 125 0 0 0 500 375zM812.5 125A62.5 62.5 0 1 0 875 187.5A62.5 62.5 0 0 0 812.5 125z" />
    <glyph glyph-name="carbon:api-1"
      unicode="&#xE04A;"
      horiz-adv-x="1000" d="M250 718.75H125A62.5 62.5 0 0 1 62.5 656.25V281.25H125V437.5H250V281.25H312.5V656.25A62.5 62.5 0 0 1 250 718.75zM125 500V656.25H250V500zM687.5 656.25H781.25V343.75H687.5V281.25H937.5V343.75H843.75V656.25H937.5V718.75H687.5V656.25zM437.5 281.25H375V718.75H562.5A62.5 62.5 0 0 0 625 656.25V500A62.5 62.5 0 0 0 562.5 437.5H437.5zM437.5 500H562.5V656.25H437.5z" />
    <glyph glyph-name="carbon:app"
      unicode="&#xE04B;"
      horiz-adv-x="1000" d="M875 687.5H687.5V250H750V375H875A62.59375 62.59375 0 0 1 937.5 437.5V625A62.5625 62.5625 0 0 1 875 687.5zM750 437.5V625H875V437.5zM562.5 687.5H375V250H437.5V375H562.5A62.59375 62.59375 0 0 1 625 437.5V625A62.5625 62.5625 0 0 1 562.5 687.5zM437.5 437.5V625H562.5V437.5zM250 687.5H93.75V625H250V562.5H125A62.5 62.5 0 0 1 62.5 500V437.5A62.5 62.5 0 0 1 125 375H312.5V625A62.5625 62.5625 0 0 1 250 687.5zM250 437.5H125V500H250z" />
    <glyph glyph-name="carbon:app-connectivity"
      unicode="&#xE04C;"
      horiz-adv-x="1000" d="M625 562.5H875A62.5625 62.5625 0 0 1 937.5 625V875A62.5625 62.5625 0 0 1 875 937.5H625A62.5625 62.5625 0 0 1 562.5 875H281.25A62.5625 62.5625 0 0 1 218.75 812.5V687.5H125A62.5625 62.5625 0 0 1 62.5 625V375A62.5625 62.5625 0 0 1 125 312.5H187.5V187.5A62.5625 62.5625 0 0 1 250 125H562.5A62.5625 62.5625 0 0 1 625 62.5H875A62.5625 62.5625 0 0 1 937.5 125V375A62.5625 62.5625 0 0 1 875 437.5H625A62.5625 62.5625 0 0 1 562.5 375V187.5H250V312.5H375A62.5625 62.5625 0 0 1 437.5 375V625A62.5625 62.5625 0 0 1 375 687.5H281.25V812.5H562.5V625A62.5625 62.5625 0 0 1 625 562.5zM625 125V250H875V125zM875 375V312.5H625V375zM125 375V500H375V375zM375 562.5H125V625H375zM625 625V750H875V625zM875 875V812.5H625V875z" />
    <glyph glyph-name="carbon:apple"
      unicode="&#xE04D;"
      horiz-adv-x="1000" d="M680.59375 750A358.8750000000001 358.8750000000001 0 0 1 585.125 733.3125A455.1875 455.1875 0 0 0 528.1875 720.40625A187.65625 187.65625 0 0 1 343.75 875V812.5A124.78125 124.78125 0 0 0 463.34375 721.875A628.59375 628.59375 0 0 0 412.8125 733.28125A402.8125 402.8125 0 0 1 313.5 750C197.1875 750 125 654.21875 125 500C125 265.3125000000001 252.125 125.0312499999999 375 125H375.0625A223.6875 223.6875 0 0 1 452.875 143.4375A156.65625 156.65625 0 0 0 500 156.25A157.09375 157.09375 0 0 0 547.21875 143.4375A223.4375 223.4375 0 0 1 625 125C747.8125 125.03125 875 265.3125000000001 875 500C875 615.3125 824.0625 750 680.59375 750zM625 187.5A172 172 0 0 0 569.0625 202A200.53125 200.53125 0 0 1 500 218.75A200.125 200.125 0 0 1 431.0625 202A172.9375 172.9375 0 0 0 375 187.5H375.0625C282.875 187.53125 187.5 304.40625 187.5 500C187.5 556.375 199.78125 687.5 313.5 687.5A351.125 351.125 0 0 0 397.25 672.71875A405.6875 405.6875 0 0 1 492.5625 656.25H507.90625A368.625 368.625 0 0 1 601.53125 673A307.75 307.75 0 0 0 680.59375 687.5C806.125 687.5 812.5 531.3125 812.5 500C812.5 304.40625 717.125 187.5312499999999 625 187.5zM562.5 781.25H531.25V812.5A62.5625 62.5625 0 0 0 593.75 875H625V843.75A62.5625 62.5625 0 0 0 562.5 781.25z" />
    <glyph glyph-name="carbon:application"
      unicode="&#xE04E;"
      horiz-adv-x="1000" d="M500 437.5H187.5A62.5 62.5 0 0 0 125 500V812.5A62.5 62.5 0 0 0 187.5 875H500A62.5 62.5 0 0 0 562.5 812.5V500A62.5 62.5 0 0 0 500 437.5zM187.5 812.5V500H500V812.5zM812.5 625V500H687.5V625H812.5M812.5 687.5H687.5A62.5 62.5 0 0 1 625 625V500A62.5 62.5 0 0 1 687.5 437.5H812.5A62.5 62.5 0 0 1 875 500V625A62.5 62.5 0 0 1 812.5 687.5zM812.5 312.5V187.5H687.5V312.5H812.5M812.5 375H687.5A62.5 62.5 0 0 1 625 312.5V187.5A62.5 62.5 0 0 1 687.5 125H812.5A62.5 62.5 0 0 1 875 187.5V312.5A62.5 62.5 0 0 1 812.5 375zM500 312.5V187.5H375V312.5H500M500 375H375A62.5 62.5 0 0 1 312.5 312.5V187.5A62.5 62.5 0 0 1 375 125H500A62.5 62.5 0 0 1 562.5 187.5V312.5A62.5 62.5 0 0 1 500 375z" />
    <glyph glyph-name="carbon:application-mobile"
      unicode="&#xE04F;"
      horiz-adv-x="1000" d="M718.75 781.25H843.75V656.25H718.75zM718.75 593.75H843.75V468.75H718.75zM531.25 781.25H656.25V656.25H531.25zM531.25 593.75H656.25V468.75H531.25zM406.25 234.375A46.875 46.875 0 0 1 500 234.375A46.875 46.875 0 0 1 406.25 234.375M656.25 62.5H250A62.5625 62.5625 0 0 0 187.5 125V875A62.5625 62.5625 0 0 0 250 937.5H656.25V875H250V125H656.25V375H718.75V125A62.5625 62.5625 0 0 0 656.25 62.5z" />
    <glyph glyph-name="carbon:application-virtual"
      unicode="&#xE050;"
      horiz-adv-x="1000" d="M531.25 406.25H656.25V281.25H531.25zM343.75 406.25H468.75V281.25H343.75zM531.25 218.75H656.25V93.75H531.25zM343.75 218.75H468.75V93.75H343.75zM765.625 218.75H750V281.25H765.625A171.75 171.75 0 0 1 777.40625 624.375L751.25 626.125L748.4375 652.1875A249.9375 249.9375 0 0 1 251.5625 652.1875L248.75 626.125L222.59375 624.34375A171.75 171.75 0 0 1 234.375 281.25H250V218.75H234.375A234.2500000000001 234.2500000000001 0 0 0 193.0625 683.625A312.5 312.5 0 0 0 806.9375 683.625A234.2500000000001 234.2500000000001 0 0 0 765.625 218.75z" />
    <glyph glyph-name="carbon:application-web"
      unicode="&#xE051;"
      horiz-adv-x="1000" d="M812.5 937.5H937.5V812.5H812.5zM812.5 750H937.5V625H812.5zM625 937.5H750V812.5H625zM625 750H750V625H625zM875 500V312.5H125V812.5H500V875H125A62.5 62.5 0 0 1 62.5 812.5V312.5A62.5 62.5 0 0 1 125 250H375V125H250V62.5H750V125H625V250H875A62.5 62.5 0 0 1 937.5 312.5V500zM562.5 125H437.5V250H562.5z" />
    <glyph glyph-name="carbon:apps"
      unicode="&#xE052;"
      horiz-adv-x="1000" d="M250 875V750H125V875zM312.5 937.5H62.5V687.5H312.5zM562.5 875V750H437.5V875zM625 937.5H375V687.5H625zM875 875V750H750V875zM937.5 937.5H687.5V687.5H937.5zM250 562.5V437.5H125V562.5zM312.5 625H62.5V375H312.5zM562.5 562.5V437.5H437.5V562.5zM625 625H375V375H625zM875 562.5V437.5H750V562.5zM937.5 625H687.5V375H937.5zM250 250V125H125V250zM312.5 312.5H62.5V62.5H312.5zM562.5 250V125H437.5V250zM625 312.5H375V62.5H625zM875 250V125H750V250zM937.5 312.5H687.5V62.5H937.5z" />
    <glyph glyph-name="carbon:archive"
      unicode="&#xE053;"
      horiz-adv-x="1000" d="M437.5 406.25H562.5V343.75H437.5zM187.5 937.5V125A62.5 62.5 0 0 1 250 62.5H750A62.5 62.5 0 0 1 812.5 125V937.5zM750 125H250V500H750zM750 562.5H250V687.5H750zM250 750V875H750V750z" />
    <glyph glyph-name="carbon:area"
      unicode="&#xE054;"
      horiz-adv-x="1000" d="M843.75 308.0625V691.9375A124.75 124.75 0 1 1 691.9375 843.75H308.0625A124.75 124.75 0 1 1 156.25 691.9375V308.0624999999999A124.75 124.75 0 1 1 308.0625 156.25H691.9375000000001A124.75 124.75 0 1 1 843.75 308.0625zM812.5 875A62.5 62.5 0 1 0 750 812.5A62.5625 62.5625 0 0 0 812.5 875zM125 812.5A62.5 62.5 0 1 0 187.5 750A62.5625 62.5625 0 0 0 125 812.5zM187.5 125A62.5 62.5 0 1 0 250 187.5A62.5625 62.5625 0 0 0 187.5 125zM691.9375 218.75H308.0625A124.8125 124.8125 0 0 1 218.75 308.0625V691.9375A124.84375 124.84375 0 0 1 308.0625 781.25H691.9375000000001A124.8125 124.8125 0 0 1 781.25 691.9375V308.0624999999999A124.78125 124.78125 0 0 1 691.9375 218.75zM812.5 125A62.5 62.5 0 1 0 875 187.5A62.59375 62.59375 0 0 0 812.5 125z" />
    <glyph glyph-name="carbon:area-custom"
      unicode="&#xE055;"
      horiz-adv-x="1000" d="M937.5 812.5A124.75 124.75 0 0 1 688.21875 819.5L299.5625 741.78125A124.6875 124.6875 0 1 1 156.25 566.9375V308.0624999999999A124.71875 124.71875 0 1 1 308.0625 156.25H566.9375000000001A124.71875 124.71875 0 1 1 741.7812500000001 299.5625L819.5000000000001 688.21875A124.8125 124.8125 0 0 1 937.5 812.5zM812.5 875A62.5 62.5 0 1 0 750 812.5A62.5625 62.5625 0 0 0 812.5 875zM125 687.5A62.5 62.5 0 1 0 187.5 625A62.5625 62.5625 0 0 0 125 687.5zM187.5 125A62.5 62.5 0 1 0 250 187.5A62.5625 62.5625 0 0 0 187.5 125zM566.9375 218.75H308.0625A124.8125 124.8125 0 0 1 218.75 308.0625V566.9375A124.59375 124.59375 0 0 1 311.78125 680.5L700.4375 758.21875A125.15625 125.15625 0 0 1 758.21875 700.40625L680.5000000000001 311.7812500000001A124.59375 124.59375 0 0 1 566.9375 218.75zM687.5 125A62.5 62.5 0 1 0 750 187.5A62.5625 62.5625 0 0 0 687.5 125z" />
    <glyph glyph-name="carbon:arrival"
      unicode="&#xE056;"
      horiz-adv-x="1000" d="M62.5 125H937.5V62.5H62.5zM537.8125 836.5625L581.25 824.6875L612.5 471.875L795.9375000000001 422.8125A62.5 62.5 0 0 0 843.75 355.625A58.75 58.75 0 0 0 800.9375 308.125A62.5 62.5 0 0 0 769.6875 308.125L185.3125 464.375A59.0625 59.0625 0 0 0 143.75 536.25L198.4375 739.375L243.4375 727.5L262.5 565.625L450 515L537.8124999999999 836.5625M506.5624999999999 905.3125A31.25 31.25 0 0 1 485.3124999999999 883.75L406.25 591.5625L318.4375 615L302.8125 756.5625A31.25 31.25 0 0 1 281.25 781.25L183.4375 808.125A29.375 29.375 0 0 1 167.8125 808.125A31.25 31.25 0 0 1 146.5625 786.875L84.0625 552.8125A120.9375 120.9375 0 0 1 169.6875 404.6875000000001L754.375 248.4375000000001A120.9375 120.9375 0 0 1 906.25 343.75A125 125 0 0 1 812.5 481.875L671.25 519.6875L641.5625 852.8125000000001A31.25 31.25 0 0 1 619.0625000000001 879.3750000000001L522.8125 906.25A33.125 33.125 0 0 1 507.1875 906.25z" />
    <glyph glyph-name="carbon:arrow-annotation"
      unicode="&#xE057;"
      horiz-adv-x="1000" d="M428.4375 615.9375L231.875 812.5H437.5V875H125V562.8125L187.5 562.1875V768.4375L384.0625 571.875L428.4375 615.9375zM875 687.5H562.5V625H875V125H375V437.5H312.5V125A62.5 62.5 0 0 1 375 62.5H875A62.5 62.5 0 0 1 937.5 125V625A62.5 62.5 0 0 1 875 687.5zM593.75 218.75H656.25V437.5H750V500H500V437.5H593.75V218.75z" />
    <glyph glyph-name="carbon:arrow-down"
      unicode="&#xE058;"
      horiz-adv-x="1000" d="M768.4375 481.5625L531.25 244.6875V875H468.75V244.6875L231.5625 481.5624999999999L187.5 437.5L500 125L812.5 437.5L768.4375 481.5625z" />
    <glyph glyph-name="carbon:arrow-down-left"
      unicode="&#xE059;"
      horiz-adv-x="1000" d="M687.5 187.5V250H294.0625L812.5 768.4375L768.4375 812.5L250 294.0625V687.5H187.5V187.5H687.5z" />
    <glyph glyph-name="carbon:arrow-down-right"
      unicode="&#xE05A;"
      horiz-adv-x="1000" d="M312.5 187.5V250H705.9375L187.5 768.4375L231.5625 812.5L750 294.0625V687.5H812.5V187.5H312.5z" />
    <glyph glyph-name="carbon:arrow-left"
      unicode="&#xE05B;"
      horiz-adv-x="1000" d="M437.5 187.5L481.5625 231.5625L244.6875 468.75H875V531.25H244.6875L481.5625 768.4375L437.5 812.5L125 500L437.5 187.5z" />
    <glyph glyph-name="carbon:arrow-right"
      unicode="&#xE05C;"
      horiz-adv-x="1000" d="M562.5 812.5L517.8125 768.96875L754.6875 531.25H125V468.75H754.6875L517.8125 232.09375L562.5 187.5L875 500L562.5 812.5z" />
    <glyph glyph-name="carbon:arrow-shift-down"
      unicode="&#xE05D;"
      horiz-adv-x="1000" d="M718.75 812.5V500H875A31.25 31.25 0 0 0 897.09375 446.65625L522.09375 71.65625A31.25 31.25 0 0 0 477.9062500000001 71.65625L102.90625 446.65625A31.25 31.25 0 0 0 125 500H281.25V812.5A62.5625 62.5625 0 0 0 343.75 875H656.25A62.59375 62.59375 0 0 0 718.75 812.5zM500 137.9375L799.5625 437.5H656.25V812.5H343.75V437.5H200.4375z" />
    <glyph glyph-name="carbon:arrow-up"
      unicode="&#xE05E;"
      horiz-adv-x="1000" d="M500 875L187.5 562.5L231.5625 518.4375L468.75 755.3125V125H531.25V755.3125L768.4375 518.4375L812.5 562.5L500 875z" />
    <glyph glyph-name="carbon:arrow-up-left"
      unicode="&#xE05F;"
      horiz-adv-x="1000" d="M687.5 812.5V750H294.0625L812.5 231.5625L768.4375 187.5L250 705.9375V312.5H187.5V812.5H687.5z" />
    <glyph glyph-name="carbon:arrow-up-right"
      unicode="&#xE060;"
      horiz-adv-x="1000" d="M312.5 812.5V750H705.9375L187.5 231.5625L231.5625 187.5L750 705.9375V312.5H812.5V812.5H312.5z" />
    <glyph glyph-name="carbon:arrows-horizontal"
      unicode="&#xE061;"
      horiz-adv-x="1000" d="M356.5625 169.0625L244.6875 281.25H875V343.75H244.6875L356.5625 455.9375L312.5 500L125 312.5L312.5 125L356.5625 169.0625zM875 687.5L687.5 875L643.4375 830.9375L755.3125 718.75H125V656.25H755.3125L643.4375000000001 544.0625L687.5 500L875 687.5z" />
    <glyph glyph-name="carbon:arrows-vertical"
      unicode="&#xE062;"
      horiz-adv-x="1000" d="M862.5 356.25L750 243.75V875H687.5V243.75L575 356.2500000000001L531.25 312.5L718.75 125L906.25 312.5zM281.25 875L93.75 687.5L137.5 643.75L250 756.25V125H312.5V756.25L425 643.75L468.75 687.5z" />
    <glyph glyph-name="carbon:asleep"
      unicode="&#xE063;"
      horiz-adv-x="1000" d="M421.9375 830.8125A471.09375 471.09375 0 0 1 784.25 262.2500000000001A347.28125 347.28125 0 0 0 535.0312500000001 156.3125000000001C530.71875 156.3125000000001 526.3437500000001 156.1562500000001 521.9687500000001 156.3125000000001A346.6875 346.6875 0 0 0 421.9687500000001 830.8125M468.125 906.25A31.3125 31.3125 0 0 1 462.65625 905.75A409.2500000000001 409.2500000000001 0 0 1 519.6875 93.84375C524.8125 93.65625 529.9375 93.84375 534.9999999999999 93.84375A408.5 408.5 0 0 1 869.4687499999999 267.4375A31.5625 31.5625 0 0 1 844.9999999999999 316.34375A408.75 408.75 0 0 0 496.5625 863.125A31.71875 31.71875 0 0 1 468.125 906.25z" />
    <glyph glyph-name="carbon:asleep-filled"
      unicode="&#xE064;"
      horiz-adv-x="1000" d="M468.125 906.25A31.3125 31.3125 0 0 1 462.65625 905.75A409.2500000000001 409.2500000000001 0 0 1 519.6875 93.84375C524.8125 93.65625 529.9375 93.84375 534.9999999999999 93.84375A408.5 408.5 0 0 1 869.4687499999999 267.4375A31.5625 31.5625 0 0 1 844.9999999999999 316.34375A408.75 408.75 0 0 0 496.5625 863.125A31.71875 31.71875 0 0 1 468.125 906.25z" />
    <glyph glyph-name="carbon:assembly"
      unicode="&#xE065;"
      horiz-adv-x="1000" d="M500 206.25L250 353.125V646.875L500 793.75L750 646.875V353.125L500 206.25zM312.5 387.5000000000001L500 278.1250000000001L687.5 387.5000000000001V609.375L500 718.75L312.5 609.375V387.5zM843.75 743.75L531.25 928.125C521.875 934.375 512.5 937.5 500 937.5S478.125 934.375 468.75 928.125L156.25 743.75C137.5 731.25 125 712.5 125 690.625V309.3750000000001C125 287.5000000000001 137.5 265.6250000000001 156.25 256.2500000000001L468.75 71.8750000000001C478.125 65.6250000000001 490.625 62.5000000000001 500 62.5000000000001S521.875 65.6250000000001 531.25 71.8750000000001L843.75 256.2500000000001C862.5 268.75 875 287.5000000000001 875 309.3750000000001V690.625C875 712.5 862.5 734.375 843.75 743.75zM812.5 309.375L500 125L187.5 309.375V690.625L500 875L812.5 690.625V309.375z" />
    <glyph glyph-name="carbon:assembly-cluster"
      unicode="&#xE066;"
      horiz-adv-x="1000" d="M665.625 846.875L525 931.25C515.625 934.375 509.375 937.5 500 937.5S484.375 934.375 478.125 931.25L337.5 846.875C321.875 837.5 312.5 821.875 312.5 806.25V631.25C312.5 615.625 321.875 600 334.375 590.625L475 506.25C481.2499999999999 503.125 490.625 500 496.8749999999999 500S512.5 503.125 518.7499999999999 506.25L659.3749999999999 590.625C671.8749999999999 600 681.2499999999999 612.5 681.2499999999999 631.25V806.25C687.4999999999999 821.875 678.1249999999999 837.5 665.6249999999999 846.875zM625 640.625L500 565.625L375 640.625V796.875L500 871.875L625 796.875V640.625zM915.625 409.375L775 493.75C765.625 496.8750000000001 759.375 500 750 500S734.375 496.8749999999999 728.125 493.75L587.5 409.375C575.0000000000001 400 565.625 387.5000000000001 565.625 368.75V193.7500000000001C565.625 178.1250000000001 575.0000000000001 162.5000000000001 587.5 153.1250000000001L728.125 68.7500000000001C734.375 65.625 743.75 62.5000000000001 750 62.5000000000001S765.625 65.6250000000001 771.875 68.7500000000001L912.5 153.1250000000001C924.9999999999998 162.5000000000001 934.375 175 934.375 193.7500000000001V368.7500000000001C937.5 384.3750000000001 928.125 400.0000000000001 915.6249999999998 409.3750000000001zM875 203.125L750 128.125L625 203.125V359.375L750 434.375L875 359.375V203.125zM415.625 409.375L275 493.75C265.625 496.8750000000001 259.375 500 250 500S234.375 496.8749999999999 228.125 493.75L87.5 409.375C71.875 400 62.5 384.375 62.5 368.75V193.7500000000001C62.5 178.1250000000001 71.875 162.5000000000001 84.375 153.1250000000001L225 68.7500000000001C234.375 65.625 240.625 62.5000000000001 250 62.5000000000001S265.625 65.6250000000001 271.875 68.7500000000001L412.5 153.1250000000001C425 162.5000000000001 434.375 175 434.375 193.7500000000001V368.7500000000001C437.5 384.3750000000001 428.125 400.0000000000001 415.625 409.3750000000001zM375 203.125L250 128.125L125 203.125V359.375L250 434.375L375 359.375V203.125z" />
    <glyph glyph-name="carbon:assembly-reference"
      unicode="&#xE067;"
      horiz-adv-x="1000" d="M263.6875 807.96875L357.84375 863.59375L389.6562500000001 809.8125L295.5000000000001 754.1875zM187.5 625H125V690.625C125 712.5 137.5 734.375 156.25 743.75L203.125 771.875L234.375 718.75L187.5 690.625V625zM125 562.5H187.5V437.5H125zM203.125 228.125L156.25 256.25C137.5 268.7499999999999 125 287.5 125 309.375V375H187.5V309.375L234.375 281.25L203.125 228.125zM263.5 192.875L295.28125 246.6875000000001L389.4375 191.0625L357.65625 137.21875zM546.875 153.125L500 125L453.125 153.125L421.875 100L468.75 71.875C478.125 65.625 490.625 62.5 500 62.5C512.5 62.5 521.875 65.625 531.25 71.875L578.125 100L546.875 153.125zM610.0625 190.40625L704.2187499999999 246.0625L736.0312499999999 192.2499999999999L641.8437499999999 136.6249999999999zM787.5 221.875L756.25 275L812.5 306.25V375H875V309.375C875 287.5 862.5 265.625 843.75 256.25L787.5 221.8749999999999zM812.5 562.5H875V437.5H812.5zM875 625H812.5V690.625L756.25 721.875L787.5 775L843.75 743.75C862.5 731.25 875 712.5 875 690.625V625zM607.875 811.25L639.6562499999999 865.03125L733.8125 809.40625L702.03125 755.59375zM546.875 846.875L500 875L453.125 846.875L421.875 900L468.75 928.125C478.125 934.375 487.5 937.5 500 937.5S521.875 934.375 531.25 928.125L578.125 900L546.875 846.875z" />
    <glyph glyph-name="carbon:asset"
      unicode="&#xE068;"
      horiz-adv-x="1000" d="M375 250A125 125 0 1 0 500 375A125.125 125.125 0 0 0 375 250zM375 437.5A62.5 62.5 0 1 1 437.5 375A62.5625 62.5625 0 0 1 375 437.5zM937.5 812.5A125.125 125.125 0 0 1 812.5 937.5A123.40625 123.40625 0 0 1 754.5625 922.59375L242.4062500000001 657.59375A312.25 312.25 0 1 1 658.3125000000001 243.96875L923.6250000000002 756.4687499999999A123.4375 123.4375 0 0 1 937.5 812.5zM812.5 875A62.5 62.5 0 1 0 750 812.5A62.5625 62.5625 0 0 0 812.5 875zM688.125 818.5C688 816.46875 687.5 814.5625 687.5 812.5A125.125 125.125 0 0 1 812.5 687.5C814.53125 687.5 816.375 688 818.375 688.09375L682.9999999999999 426.78125A313.03125 313.03125 0 0 1 426.28125 682.90625zM375 125A250 250 0 1 0 625 375A250.3125 250.3125 0 0 0 375 125z" />
    <glyph glyph-name="carbon:asset-confirm"
      unicode="&#xE069;"
      horiz-adv-x="1000" d="M656.25 150.625L575.3125 231.5625L531.25 187.5L656.25 62.5L875 281.25L830.9375 325.3125L656.25 150.625zM375 250A125 125 0 1 0 500 375A125.125 125.125 0 0 0 375 250zM375 437.5A62.5 62.5 0 1 1 437.5 375A62.5625 62.5625 0 0 1 375 437.5zM812.5 937.5A120.625 120.625 0 0 1 754.6875 922.5L242.5 657.5A312.1875 312.1875 0 0 1 375 62.5A292.03125 292.03125 0 0 1 437.5 69.0625V132.8125A257.15625 257.15625 0 0 0 375 125A250 250 0 1 0 625 375A258.3125 258.3125 0 0 0 623.125 343.75H710.0000000000001L923.7500000000002 756.5625A124.15625 124.15625 0 0 1 812.5 937.5zM683.125 426.875A313.09375 313.09375 0 0 1 426.25 682.8125L688.125 818.4375C688.125 816.5625 687.5 814.6875 687.5 812.5A124.96875 124.96875 0 0 1 812.5 687.5C814.375 687.5 816.25 688.125 818.4375 688.125zM812.5 750A62.5 62.5 0 1 0 875 812.5A62.6875 62.6875 0 0 0 812.5 750z" />
    <glyph glyph-name="carbon:asset-digital-twin"
      unicode="&#xE06A;"
      horiz-adv-x="1000" d="M718.75 781.25A62.5 62.5 0 0 1 843.75 781.25A62.5 62.5 0 0 1 718.75 781.25M375 281.25A93.75 93.75 0 1 0 468.75 375A93.84375 93.84375 0 0 0 375 281.25zM375 406.25A31.25 31.25 0 1 1 406.25 375A31.28125 31.28125 0 0 1 375 406.25zM343.75 562.5A31.25 31.25 0 0 1 406.25 562.5A31.25 31.25 0 0 1 343.75 562.5M528.40625 821.71875A31.25 31.25 0 0 1 590.90625 821.71875A31.25 31.25 0 0 1 528.40625 821.71875M274.59375 690.40625A31.25 31.25 0 0 1 337.09375 690.40625A31.25 31.25 0 0 1 274.59375 690.40625M359.21875 734.1875A31.25 31.25 0 0 1 421.71875 734.1875A31.25 31.25 0 0 1 359.21875 734.1875M443.78125 777.96875A31.25 31.25 0 0 1 506.28125 777.96875A31.25 31.25 0 0 1 443.78125 777.96875M115.5 587.90625A31.25 31.25 0 0 1 178 587.90625A31.25 31.25 0 0 1 115.5 587.90625M35.40625 324.03125A31.25 31.25 0 0 1 97.90625 324.03125A31.25 31.25 0 0 1 35.40625 324.03125M64.96875 233.875A31.25 31.25 0 0 1 127.46875 233.875A31.25 31.25 0 0 1 64.96875 233.875M120.25 156.8125A31.25 31.25 0 0 1 182.75 156.8125A31.25 31.25 0 0 1 120.25 156.8125M196 99.6875A31.25 31.25 0 0 1 258.5 99.6875A31.25 31.25 0 0 1 196 99.6875M34.3125 418.875A31.25 31.25 0 0 1 96.8125 418.875A31.25 31.25 0 0 1 34.3125 418.875M61.84375 509.65625A31.25 31.25 0 0 1 124.34375 509.65625A31.25 31.25 0 0 1 61.84375 509.65625M190.03125 646.625A31.25 31.25 0 0 1 252.53125 646.625A31.25 31.25 0 0 1 190.03125 646.625M613 865.5A31.25 31.25 0 0 1 675.5 865.5A31.25 31.25 0 0 1 613 865.5M697.59375 909.28125A31.25 31.25 0 0 1 760.09375 909.28125A31.25 31.25 0 0 1 697.59375 909.28125M874.625 722.1875A31.25 31.25 0 0 1 937.125 722.1875A31.25 31.25 0 0 1 874.625 722.1875M830.84375 637.625A31.25 31.25 0 0 1 893.34375 637.625A31.25 31.25 0 0 1 830.84375 637.625M787.0625 553.03125A31.25 31.25 0 0 1 849.5625 553.03125A31.25 31.25 0 0 1 787.0625 553.03125M743.25 468.4375A31.25 31.25 0 0 1 805.75 468.4375A31.25 31.25 0 0 1 743.25 468.4375M699.46875 383.84375A31.25 31.25 0 0 1 761.96875 383.84375A31.25 31.25 0 0 1 699.46875 383.84375M655.6875 299.25A31.25 31.25 0 0 1 718.1875 299.25A31.25 31.25 0 0 1 655.6875 299.25M551.15625 141.75A31.25 31.25 0 0 1 613.65625 141.75A31.25 31.25 0 0 1 551.15625 141.75M471.6249999999999 89.9375A31.25 31.25 0 0 1 534.125 89.9375A31.25 31.25 0 0 1 471.6249999999999 89.9375M380.1875 64.625A31.25 31.25 0 0 1 442.6875 64.625A31.25 31.25 0 0 1 380.1875 64.625M285.40625 67.96875A31.25 31.25 0 0 1 347.90625 67.96875A31.25 31.25 0 0 1 285.40625 67.96875M611.625 214.84375A31.25 31.25 0 0 1 674.125 214.84375A31.25 31.25 0 0 1 611.625 214.84375M871.65625 898.75A31.25 31.25 0 0 1 934.15625 898.75A31.25 31.25 0 0 1 871.65625 898.75M787.125 937.375A31.25 31.25 0 0 1 849.625 937.375A31.25 31.25 0 0 1 787.125 937.375M343.75 187.5A31.25 31.25 0 0 1 406.25 187.5A31.25 31.25 0 0 1 343.75 187.5M156.25 375A31.25 31.25 0 0 1 218.75 375A31.25 31.25 0 0 1 156.25 375M531.25 375A31.25 31.25 0 0 1 593.75 375A31.25 31.25 0 0 1 531.25 375M181.375 468.75A31.25 31.25 0 0 1 243.875 468.75A31.25 31.25 0 0 1 181.375 468.75M506.1250000000001 281.25A31.25 31.25 0 0 1 568.625 281.25A31.25 31.25 0 0 1 506.1250000000001 281.25M250 212.625A31.25 31.25 0 0 1 312.5 212.625A31.25 31.25 0 0 1 250 212.625M437.5 537.375A31.25 31.25 0 0 1 500 537.375A31.25 31.25 0 0 1 437.5 537.375M250 537.375A31.25 31.25 0 0 1 312.5 537.375A31.25 31.25 0 0 1 250 537.375M437.5 212.625A31.25 31.25 0 0 1 500 212.625A31.25 31.25 0 0 1 437.5 212.625M181.375 281.25A31.25 31.25 0 0 1 243.875 281.25A31.25 31.25 0 0 1 181.375 281.25M506.1250000000001 468.75A31.25 31.25 0 0 1 568.625 468.75A31.25 31.25 0 0 1 506.1250000000001 468.75M906.25 811.6875A31.25 31.25 0 0 1 968.75 811.6875A31.25 31.25 0 0 1 906.25 811.6875" />
    <glyph glyph-name="carbon:asset-view"
      unicode="&#xE06B;"
      horiz-adv-x="1000" d="M625 250A62.5 62.5 0 0 1 750 250A62.5 62.5 0 0 1 625 250M930.53125 266.28125A270 270 0 0 1 687.5 437.5A270 270 0 0 1 444.46875 266.28125L437.5 250L444.46875 233.71875A270 270 0 0 1 687.5 62.5A270 270 0 0 1 930.53125 233.71875L937.5 250zM687.5 125A125 125 0 1 0 812.5 250A125.15625 125.15625 0 0 0 687.5 125zM375 250A125 125 0 1 0 468.15625 458.34375L421.59375 416.6562500000001A62.5 62.5 0 1 1 375 312.5zM812.5 937.5A120.625 120.625 0 0 1 754.6875 922.5L242.5 657.5A312.1875 312.1875 0 0 1 375 62.5V125A250 250 0 1 0 550.9375 552.5L594.6874999999999 596.25A312.6875 312.6875 0 0 1 426.2499999999999 682.8125L688.1249999999999 818.4375C688.1249999999999 816.5625 687.4999999999999 814.6875 687.4999999999999 812.5A124.96875 124.96875 0 0 1 812.4999999999999 687.5C814.3749999999999 687.5 816.2499999999999 688.125 818.4374999999999 688.125L720.9375 500H790.9375000000001L923.7500000000002 756.5625A124.15625 124.15625 0 0 1 812.5 937.5zM812.5 750A62.5 62.5 0 1 0 875 812.5A62.6875 62.6875 0 0 0 812.5 750z" />
    <glyph glyph-name="carbon:asterisk"
      unicode="&#xE06C;"
      horiz-adv-x="1000" d="M884.875 564.09375L865.1249999999999 623.40625L531.25 512.125V875H468.75V512.125L134.875 623.40625L115.125 564.09375L449 452.8125000000001L225 154.1875L275 116.65625L500 416.65625L725 116.6562499999999L775 154.1874999999999L551 452.8124999999999L884.8750000000001 564.0937499999998z" />
    <glyph glyph-name="carbon:at"
      unicode="&#xE06D;"
      horiz-adv-x="1000" d="M500 906.25A403.75 403.75 0 0 1 93.75 500V468.75A406.25 406.25 0 0 1 500 62.5H718.75V125H500A343.75 343.75 0 0 0 156.25 468.75V500A341.875 341.875 0 0 0 500 843.75A332.5 332.5 0 0 0 843.75 500C843.75 387.8125 800 343.75 729.375 343.75C679.9999999999999 343.75 656.25 384.0625 656.25 437.5V687.5H593.75V626.875A120 120 0 0 1 484.375 687.5A171.25 171.25 0 0 1 312.5 517.5V451.2499999999999A171.25 171.25 0 0 1 484.375 281.25A133.75 133.75 0 0 1 609.375 358.125A135.9375 135.9375 0 0 1 731.5625 281.25C827.5 281.25 906.25 343.75 906.25 500A397.5000000000001 397.5000000000001 0 0 1 500 906.25zM593.75 451.2499999999999A109.375 109.375 0 0 0 375 451.2499999999999V517.5A109.375 109.375 0 0 0 593.75 517.5z" />
    <glyph glyph-name="carbon:attachment"
      unicode="&#xE06E;"
      horiz-adv-x="1000" d="M878.125 409.375L409.3750000000001 878.125C331.2500000000001 959.375 203.1250000000001 959.375 121.8750000000001 881.25S40.6250000000001 671.875 121.8750000000001 593.75L125.0000000000001 590.625L212.5 500L256.25 543.75L165.625 634.375C112.5 687.5 112.5 778.125 165.625 831.25S309.375 887.5 362.5 834.375L365.625 831.25L831.2499999999999 365.625C887.5 312.5 887.5 221.875 834.375 168.75C781.25 112.4999999999999 690.625 112.4999999999999 637.5 165.6249999999999L634.3749999999999 168.75L403.1249999999999 399.9999999999999C371.8749999999999 431.2499999999999 374.9999999999999 481.25 403.1249999999999 509.3749999999999C434.3749999999999 537.5 481.2499999999999 537.5 512.5 509.3749999999999L640.625 381.2499999999999L684.375 424.9999999999998L553.125 556.2499999999998C496.8749999999999 609.3749999999998 409.375 606.2499999999998 356.25 549.9999999999998C306.25 496.8749999999998 306.25 412.4999999999999 356.25 356.2499999999999L590.625 121.8749999999999C668.75 40.6249999999998 796.875 40.6249999999998 878.1249999999999 118.7499999999998S959.375 328.1249999999998 878.1249999999999 409.3749999999998C878.1249999999999 406.2499999999998 878.1249999999999 409.3749999999998 878.1249999999999 409.3749999999998z" />
    <glyph glyph-name="carbon:audio-console"
      unicode="&#xE06F;"
      horiz-adv-x="1000" d="M875 562.34375H843.75V937.34375H781.25V562.34375H750A62.5625 62.5625 0 0 1 687.5 499.8437499999999V437.3437499999999A62.5625 62.5625 0 0 1 750 374.8437499999999H781.25V62.3437499999999H843.75V374.8437499999999H875A62.59375 62.59375 0 0 1 937.5 437.3437499999999V499.8437499999999A62.5625 62.5625 0 0 1 875 562.34375zM875 437.3437499999999H750V499.8437499999999H875zM562.5 812.3437499999999H531.25V937.3437499999998H468.75V812.3437499999999H437.5A62.5625 62.5625 0 0 1 375 749.8437499999999V687.34375A62.5625 62.5625 0 0 1 437.5 624.84375H468.75V62.3437499999999H531.25V624.84375H562.5A62.5625 62.5625 0 0 1 625 687.34375V749.8437499999999A62.5625 62.5625 0 0 1 562.5 812.3437499999999zM562.5 687.34375H437.5V749.8437499999999H562.5zM250 374.8437499999999H218.75V937.3437499999998H156.25V374.8437499999999H125A62.5625 62.5625 0 0 1 62.5 312.3437499999999V249.8437499999999A62.5625 62.5625 0 0 1 125 187.3437499999999H156.25V62.3437499999999H218.75V187.3437499999999H250A62.5625 62.5625 0 0 1 312.5 249.8437499999999V312.3437499999999A62.5625 62.5625 0 0 1 250 374.8437499999999zM250 249.8437499999999H125V312.3437499999999H250z" />
    <glyph glyph-name="carbon:augmented-reality"
      unicode="&#xE070;"
      horiz-adv-x="1000" d="M857.71875 715.46875L670.21875 809.21875A31.25 31.25 0 0 1 642.28125 809.21875L454.78125 715.46875A31.25 31.25 0 0 1 437.5 687.5V468.75A31.25 31.25 0 0 1 454.78125 440.8125L642.28125 347.0625A31.28125 31.28125 0 0 1 670.21875 347.0625L857.71875 440.8125A31.25 31.25 0 0 1 875 468.75V687.5A31.25 31.25 0 0 1 857.71875 715.46875zM656.25 746.3125L773.875 687.5L656.25 628.6875L538.625 687.5zM500 636.9375L625 574.4375V425.5625L500 488.0624999999999zM687.5 425.5625V574.4375L812.5 636.9375V488.0624999999999zM375 234.375A46.875 46.875 0 0 1 468.75 234.375A46.875 46.875 0 0 1 375 234.375M625 62.5H218.75A62.5625 62.5625 0 0 0 156.25 125V875A62.5625 62.5625 0 0 0 218.75 937.5H625V875H218.75V125H625V250H687.5V125A62.5625 62.5625 0 0 0 625 62.5z" />
    <glyph glyph-name="carbon:auto-scroll"
      unicode="&#xE071;"
      horiz-adv-x="1000" d="M375 500A125 125 0 1 1 500 625A125 125 0 0 1 375 500zM562.5 500A62.5 62.5 0 1 0 500 562.5A62.5 62.5 0 0 0 562.5 500zM500 150.9375L325 325.6249999999999L281.25 281.25L500 62.5L718.75 281.25L674.6875 325.3125L500 150.9375zM500 849.0625L674.375 675L718.75 718.75L500 937.5L281.25 718.75L325.3125 674.6875L500 849.0625z" />
    <glyph glyph-name="carbon:automatic"
      unicode="&#xE072;"
      horiz-adv-x="1000" d="M812.5 500H687.5A62.5625 62.5625 0 0 1 625 437.5V62.5H687.5V218.75H812.5V62.5H875V437.5A62.5625 62.5625 0 0 1 812.5 500zM687.5 281.25V437.5H812.5V281.25zM500 156.25A343.3125 343.3125 0 0 0 212 312.5H375V375H125V125H187.5V240.15625A407.0000000000001 407.0000000000001 0 0 1 500 93.75zM625 687.5H787.96875A343.65625 343.65625 0 0 1 156.25 500H93.75A406.40625 406.40625 0 0 0 812.5 759.84375V875H875V625H625z" />
    <glyph glyph-name="carbon:autoscaling"
      unicode="&#xE073;"
      horiz-adv-x="1000" d="M687.5 125H375V187.5H687.5V687.5H187.5V375H125V687.5A62.5625 62.5625 0 0 0 187.5 750H687.5A62.5625 62.5625 0 0 0 750 687.5V187.5A62.5625 62.5625 0 0 0 687.5 125zM875 312.5H812.5V375H875V875H375V812.5H312.5V875A62.5625 62.5625 0 0 0 375 937.5H875A62.5625 62.5625 0 0 0 937.5 875V375A62.5625 62.5625 0 0 0 875 312.5zM312.5 562.5V500H455.8125L93.75 137.9375L137.9375 93.75L500 455.8125V312.5H562.5V562.5H312.5z" />
    <glyph glyph-name="carbon:awake"
      unicode="&#xE074;"
      horiz-adv-x="1000" d="M468.75 937.5H531.25V782.5H468.75zM677.71875 722.1875L787.3125000000001 831.75L831.5000000000001 787.5625L721.9062500000001 677.96875zM782.5 531.25H937.5V468.75H782.5zM677.9062499999999 278L722.09375 322.1875000000001L831.6875 212.59375L787.5 168.4375zM468.75 217.5H531.25V62.5H468.75zM168.625 212.4375L278.25 322.0312500000001L322.4375 277.84375L212.84375 168.25zM62.5 531.25H217.5V468.75H62.5zM168.4375 787.40625L212.65625 831.59375L322.2500000000001 722L278.0625000000001 677.8125zM500 625A125 125 0 1 0 375 500A125 125 0 0 0 500 625M500 687.5A187.5 187.5 0 1 1 687.5 500A187.5 187.5 0 0 1 500 687.5z" />
    <glyph glyph-name="carbon:badge"
      unicode="&#xE075;"
      horiz-adv-x="1000" d="M718.75 937.5L768.53125 843.75L875 830.8125L796.875 760.40625L812.5 656.25L718.75 714.84375L625 656.25L640.625 760.40625L562.5 830.8125L671.875 843.75L718.75 937.5zM709.90625 585.96875L649.34375 601.53125A218.5625 218.5625 0 1 0 492.2187500000001 868.125L507.8125 928.65625A280.9375000000001 280.9375000000001 0 0 1 250 447.1875V62.5L437.5 187.5L625 62.5V446.625A280.09375 280.09375 0 0 1 709.90625 585.96875zM562.5 179.28125L437.5 262.6249999999999L312.5 179.2812499999999V404.6875A278.875 278.875 0 0 1 562.5 404.5z" />
    <glyph glyph-name="carbon:baggage-claim"
      unicode="&#xE076;"
      horiz-adv-x="1000" d="M125 187.5A62.5 62.5 0 0 1 250 187.5A62.5 62.5 0 0 1 125 187.5M875 437.5H781.25V500A62.5625 62.5625 0 0 1 718.75 562.5H593.75A62.5625 62.5625 0 0 1 531.25 500V437.5H437.5A62.5625 62.5625 0 0 1 375 375V125A62.5625 62.5625 0 0 1 437.5 62.5H875A62.5625 62.5625 0 0 1 937.5 125V375A62.5625 62.5625 0 0 1 875 437.5zM593.75 500H718.75V437.5H593.75zM875 125H437.5V375H875zM312.5 812.5H437.5V625H500V812.5H625V625H687.5V812.5H812.5V625H875V812.34375A62.65625 62.65625 0 0 1 812.34375 875H125.15625A62.65625 62.65625 0 0 1 62.5 812.34375V375.15625A62.65625 62.65625 0 0 1 125.15625 312.5H312.5zM250 375H125V812.5H250z" />
    <glyph glyph-name="carbon:bar"
      unicode="&#xE077;"
      horiz-adv-x="1000" d="M781.25 656.25H468.75A31.25 31.25 0 0 1 437.5 625V500A187.65625 187.65625 0 0 1 593.75 315.3125V125H500V62.5H750V125H656.25V315.3125A187.65625 187.65625 0 0 1 812.5 500V625A31.25 31.25 0 0 1 781.25 656.25zM750 500A125 125 0 0 0 500 500V593.75H750zM468.75 968.75H312.5A31.25 31.25 0 0 1 281.25 937.5V707.1875A190.3125 190.3125 0 0 1 187.5 531.25V93.75A31.25 31.25 0 0 1 218.75 62.5H375V125H250V531.25C250 630.875 319.71875 656.875 322.375 657.84375L343.75 665V906.25H437.5V750H500V937.5A31.25 31.25 0 0 1 468.75 968.75z" />
    <glyph glyph-name="carbon:barcode"
      unicode="&#xE078;"
      horiz-adv-x="1000" d="M62.5 812.5H125V125H62.5zM375 812.5H437.5V187.5H375zM187.5 812.5H312.5V187.5H187.5zM500 812.5H625V187.5H500zM687.5 812.5H812.5V187.5H687.5zM875 812.5H937.5V125H875z" />
    <glyph glyph-name="carbon:bare-metal-server"
      unicode="&#xE079;"
      horiz-adv-x="1000" d="M250 812.5A31.25 31.25 0 0 1 312.5 812.5A31.25 31.25 0 0 1 250 812.5M812.5 687.5H187.5A62.5625 62.5625 0 0 0 125 750V875A62.5625 62.5625 0 0 0 187.5 937.5H812.5A62.5625 62.5625 0 0 0 875 875V750A62.5625 62.5625 0 0 0 812.5 687.5zM187.5 875V750H812.5V875zM250 500A31.25 31.25 0 0 1 312.5 500A31.25 31.25 0 0 1 250 500M812.5 375H187.5A62.5625 62.5625 0 0 0 125 437.5V562.5A62.5625 62.5625 0 0 0 187.5 625H812.5A62.5625 62.5625 0 0 0 875 562.5V437.5A62.5625 62.5625 0 0 0 812.5 375zM187.5 562.5V437.5H812.5V562.5zM250 187.5A31.25 31.25 0 0 1 312.5 187.5A31.25 31.25 0 0 1 250 187.5M812.5 62.5H187.5A62.5625 62.5625 0 0 0 125 125V250A62.5625 62.5625 0 0 0 187.5 312.5H812.5A62.5625 62.5625 0 0 0 875 250V125A62.5625 62.5625 0 0 0 812.5 62.5zM187.5 250V125H812.5V250z" />
    <glyph glyph-name="carbon:bare-metal-server-01"
      unicode="&#xE07A;"
      horiz-adv-x="1000" d="M531.25 125V312.5H468.75V125H156.25V62.5H843.75V125H531.25zM250 500A31.25 31.25 0 0 1 312.5 500A31.25 31.25 0 0 1 250 500M812.5 375H187.5A62.5625 62.5625 0 0 0 125 437.5V562.5A62.5625 62.5625 0 0 0 187.5 625H812.5A62.5625 62.5625 0 0 0 875 562.5V437.5A62.5625 62.5625 0 0 0 812.5 375zM187.5 562.5V437.5H812.5V562.5z" />
    <glyph glyph-name="carbon:bare-metal-server-02"
      unicode="&#xE07B;"
      horiz-adv-x="1000" d="M531.25 125V312.5H468.75V125H156.25V62.5H843.75V125H531.25zM250 500A31.25 31.25 0 0 1 312.5 500A31.25 31.25 0 0 1 250 500M812.5 375H187.5A62.5625 62.5625 0 0 0 125 437.5V562.5A62.5625 62.5625 0 0 0 187.5 625H812.5A62.5625 62.5625 0 0 0 875 562.5V437.5A62.5625 62.5625 0 0 0 812.5 375zM187.5 562.5V437.5H812.5V562.5zM250 812.5A31.25 31.25 0 0 1 312.5 812.5A31.25 31.25 0 0 1 250 812.5M812.5 687.5H187.5A62.5625 62.5625 0 0 0 125 750V875A62.5625 62.5625 0 0 0 187.5 937.5H812.5A62.5625 62.5625 0 0 0 875 875V750A62.5625 62.5625 0 0 0 812.5 687.5zM187.5 875V750H812.5V875z" />
    <glyph glyph-name="carbon:barrier"
      unicode="&#xE07C;"
      horiz-adv-x="1000" d="M468.75 843.75H531.25V718.75H468.75zM468.75 656.25H531.25V531.25H468.75zM468.75 468.75H531.25V343.75H468.75zM468.75 281.25H531.25V156.25H468.75z" />
    <glyph glyph-name="carbon:basketball"
      unicode="&#xE07D;"
      horiz-adv-x="1000" d="M500 937.5A437.5 437.5 0 1 1 937.5 500A438 438 0 0 1 500 937.5zM873.4375 531.25H688.75A450.28125 450.28125 0 0 0 774.3125 754.78125A373.125 373.125 0 0 0 873.4375 531.25zM531.25 531.25V873.4375A372.4375 372.4375 0 0 0 727.71875 797.25A508.2812500000001 508.2812500000001 0 0 1 626.25 531.25zM468.75 531.25H373.75A508.2812500000001 508.2812500000001 0 0 1 272.2812500000001 797.25A372.4375 372.4375 0 0 0 468.75 873.40625zM468.75 468.75V126.5625A372.4375 372.4375 0 0 0 272.2812500000001 202.75A508.2812500000001 508.2812500000001 0 0 1 373.75 468.75zM531.25 468.75H626.25A508.2812500000001 508.2812500000001 0 0 1 727.75 202.75A372.4375 372.4375 0 0 0 531.25 126.59375zM225.625 754.78125A450.28125 450.28125 0 0 0 311.25 531.25H126.59375A373.125 373.125 0 0 0 225.65625 754.78125zM126.5625 468.75H311.25A450.28125 450.28125 0 0 0 225.6875000000001 245.21875A373.125 373.125 0 0 0 126.5625 468.75zM774.375 245.21875A450.28125 450.28125 0 0 0 688.75 468.75H873.375A373.125 373.125 0 0 0 774.3125 245.21875z" />
    <glyph glyph-name="carbon:bastion-host"
      unicode="&#xE07E;"
      horiz-adv-x="1000" d="M860.21875 915.34375A62.375 62.375 0 0 1 812.5 937.5H728.4375A46.875 46.875 0 0 1 686.46875 911.5625L668.1875 875H625V890.625A46.875 46.875 0 0 1 578.125 937.5H421.875A46.875 46.875 0 0 1 375 890.625V875H331.8125L313.5312500000001 911.5625A46.9375 46.9375 0 0 1 271.5625 937.5H187.5A62.5 62.5 0 0 1 125.875 864.59375L147.875 734.375A93.75 93.75 0 0 1 240.3125 656.25H250V281.25A93.84375 93.84375 0 0 1 156.25 187.5V62.5H843.75V187.5A93.84375 93.84375 0 0 1 750 281.25V656.25H759.6875A93.75 93.75 0 0 1 852.125 734.375L874.125 864.59375A62.3125 62.3125 0 0 1 860.21875 915.34375zM781.25 187.5V125H218.75V187.5A31.25 31.25 0 0 0 250 218.75H750A31.25 31.25 0 0 0 781.25 187.5zM687.5 281.25H312.5V656.25H687.5zM790.5 744.78125A31.1875 31.1875 0 0 0 759.6875 718.75H240.3125A31.1875 31.1875 0 0 0 209.5 744.8125L187.5 875H261.9375L293.1875 812.5H437.5V875H562.5V812.5H706.78125L738.0625000000001 875H812.5z" />
    <glyph glyph-name="carbon:bat"
      unicode="&#xE07F;"
      horiz-adv-x="1000" d="M997.1875 794.25A31.25 31.25 0 0 1 968.75 812.5C819.75 812.5 710.6250000000001 784.71875 625 723.625V906.25H562.5V812.5H437.5V906.25H375V723.625C289.375 784.71875 180.25 812.5 31.25 812.5A31.25 31.25 0 0 1 7.625 760.8125C60.78125 699.3125 93.75 634.25 93.75 500A31.25 31.25 0 0 1 125 468.75C211.5 468.75 312.5 427.8125 312.5 312.5A31.375 31.375 0 0 1 341.6875 281.3125C354.6875 280.3749999999999 468.75 269.125 468.75 156.25A31.25 31.25 0 0 1 531.25 156.25C531.25 269.15625 645.3125 280.40625 658.1875 281.3125A31.25 31.25 0 0 1 687.5 312.5C687.5 427.8125 788.5 468.75 875 468.75A31.25 31.25 0 0 1 906.25 500C906.25 634.25 939.21875 699.3125 992.375 760.8125A31.25 31.25 0 0 1 997.15625 794.25zM844.25 529.875C738.46875 520.25 639.4687499999999 460.21875 626.4375 339.90625A204.75 204.75 0 0 1 500 262.21875A204.75 204.75 0 0 1 373.5625 339.90625C360.53125 460.21875 261.53125 520.21875 155.75 529.875A412.5625 412.5625 0 0 1 95.15625 748C224.28125 739.46875 314.9375000000001 703.375 384.15625 634.15625A31.25 31.25 0 0 1 437.5 656.25V750H562.5V656.25A31.25 31.25 0 0 1 615.84375 634.15625C685.0625 703.375 775.71875 739.46875 904.84375 748A412.5625 412.5625 0 0 1 844.25 529.875z" />
    <glyph glyph-name="carbon:battery-charging"
      unicode="&#xE080;"
      horiz-adv-x="1000" d="M843.75 656.25H812.5V687.5A62.5 62.5 0 0 1 750 750H625V687.5H750V593.75H843.75V406.25H750V312.5H593.75V250H750A62.5 62.5 0 0 1 812.5 312.5V343.75H843.75A62.5 62.5 0 0 1 906.25 406.25V593.75A62.5 62.5 0 0 1 843.75 656.25zM343.75 312.5H187.5V687.5H375V750H187.5A62.5 62.5 0 0 1 125 687.5V312.5A62.5 62.5 0 0 1 187.5 250H343.75zM462.8125 263.125L412.1875000000001 299.3750000000001L533.125 468.75H292.8125L506.8749999999999 738.125L555.6249999999999 699.375L422.1875 531.25H654.3749999999999L462.8124999999999 263.125z" />
    <glyph glyph-name="carbon:battery-empty"
      unicode="&#xE081;"
      horiz-adv-x="1000" d="M750 250H187.5A62.5625 62.5625 0 0 0 125 312.5V687.5A62.5625 62.5625 0 0 0 187.5 750H750A62.5625 62.5625 0 0 0 812.5 687.5V656.25H843.75A62.5625 62.5625 0 0 0 906.25 593.75V406.25A62.59375 62.59375 0 0 0 843.75 343.75H812.5V312.5A62.59375 62.59375 0 0 0 750 250zM187.5 687.5V312.5H750V406.25H843.75V593.75H750V687.5z" />
    <glyph glyph-name="carbon:battery-full"
      unicode="&#xE082;"
      horiz-adv-x="1000" d="M750 250H187.5A62.5 62.5 0 0 0 125 312.5V687.5A62.5 62.5 0 0 0 187.5 750H750A62.5 62.5 0 0 0 812.5 687.5V656.25H843.75A62.5 62.5 0 0 0 906.25 593.75V406.25A62.5 62.5 0 0 0 843.75 343.75H812.5V312.5A62.5 62.5 0 0 0 750 250zM187.5 687.5V312.5H750V406.25H843.75V593.75H750V687.5zM687.5 625V375H250V625z" />
    <glyph glyph-name="carbon:battery-half"
      unicode="&#xE083;"
      horiz-adv-x="1000" d="M750 250H187.5A62.5 62.5 0 0 0 125 312.5V687.5A62.5 62.5 0 0 0 187.5 750H750A62.5 62.5 0 0 0 812.5 687.5V656.25H843.75A62.5 62.5 0 0 0 906.25 593.75V406.25A62.5 62.5 0 0 0 843.75 343.75H812.5V312.5A62.5 62.5 0 0 0 750 250zM187.5 687.5V312.5H750V406.25H843.75V593.75H750V687.5zM500 625V375H250V625z" />
    <glyph glyph-name="carbon:battery-low"
      unicode="&#xE084;"
      horiz-adv-x="1000" d="M750 250H187.5A62.5625 62.5625 0 0 0 125 312.5V687.5A62.5625 62.5625 0 0 0 187.5 750H750A62.5625 62.5625 0 0 0 812.5 687.5V656.25H843.75A62.5625 62.5625 0 0 0 906.25 593.75V406.25A62.59375 62.59375 0 0 0 843.75 343.75H812.5V312.5A62.59375 62.59375 0 0 0 750 250zM187.5 687.5V312.5H750V406.25H843.75V593.75H750V687.5zM312.5 625V375H250V625z" />
    <glyph glyph-name="carbon:battery-quarter"
      unicode="&#xE085;"
      horiz-adv-x="1000" d="M750 250H187.5A62.5625 62.5625 0 0 0 125 312.5V687.5A62.5625 62.5625 0 0 0 187.5 750H750A62.5625 62.5625 0 0 0 812.5 687.5V656.25H843.75A62.5625 62.5625 0 0 0 906.25 593.75V406.25A62.59375 62.59375 0 0 0 843.75 343.75H812.5V312.5A62.59375 62.59375 0 0 0 750 250zM187.5 687.5V312.5H750V406.25H843.75V593.75H750V687.5zM375 625V375H250V625z" />
    <glyph glyph-name="carbon:bee"
      unicode="&#xE086;"
      horiz-adv-x="1000" d="M500 687.5A187.5 187.5 0 0 1 312.5 500V250A187.5 187.5 0 0 1 687.5 250V500A187.5 187.5 0 0 1 500 687.5zM367.1875 441.5625H632.8125V308.75H367.1875zM500 117.1875A133.4375 133.4375 0 0 0 367.1875 250V254.0625H632.8125V250A133.4375 133.4375 0 0 0 500 117.1875zM632.8125 496.2500000000001H367.1875V500A132.8125 132.8125 0 0 0 632.8125 500zM958.125 399.6875000000001L750 593.75V309.375A125 125 0 0 1 1000 309.375A119.6875 119.6875 0 0 1 958.125 399.6875zM875 239.0625A70.3125 70.3125 0 0 0 804.6875 309.375V468.75L920.9375 360.3125A64.0625 64.0625 0 0 0 943.75 312.5A70.3125 70.3125 0 0 0 875 239.0625zM0 309.375A125 125 0 0 1 250 309.375V593.75L41.875 399.6875A121.25 121.25 0 0 1 0 309.375zM77.5 358.1249999999999L195.3125 468.75V309.375A70.3125 70.3125 0 0 0 54.6875 309.375A64.0625 64.0625 0 0 0 77.5 358.1249999999999zM468.75 828.125A109.375 109.375 0 1 1 359.375 718.75A109.375 109.375 0 0 1 468.75 828.125zM304.6875 828.125A54.6875 54.6875 0 1 0 359.375 773.4375A55.3125 55.3125 0 0 0 304.6875 828.125zM640.625 937.5A109.375 109.375 0 1 1 750 828.125A109.375 109.375 0 0 1 640.625 937.5zM640.625 773.4375A54.6875 54.6875 0 1 0 695.3125 828.125A55.3125 55.3125 0 0 0 640.625 773.4375z" />
    <glyph glyph-name="carbon:bee-bat"
      unicode="&#xE087;"
      horiz-adv-x="1000" d="M343.75 750A62.5 62.5 0 0 1 468.75 750A62.5 62.5 0 0 1 343.75 750M531.25 750A62.5 62.5 0 0 1 656.25 750A62.5 62.5 0 0 1 531.25 750M994 729.21875A27.34375 27.34375 0 0 1 968.75 746.09375H906.25C774.6875 746.09375 664.96875 683.53125 619.84375 592.9375A150.59375 150.59375 0 0 1 380.1562500000001 592.9375C335.03125 683.53125 225.3125 746.09375 93.75 746.09375H31.25A27.34375 27.34375 0 0 1 11.9375 699.40625L15.09375 696.25A168.375 168.375 0 0 0 67.53125 507.7812499999999A27.34375 27.34375 0 0 1 93.75 472.65625A90.53125 90.53125 0 0 0 161.21875 449.9375C191.78125 419.2812499999999 191.5625 359.71875 191.40625 320.3125V312.5A27.34375 27.34375 0 0 1 218.75 285.15625H347.65625V281.25A152.34375 152.34375 0 0 1 652.34375 281.25V285.15625H781.25A27.34375 27.34375 0 0 1 808.59375 312.5V320.3125C808.4375 359.6875 808.25 419.28125 838.8125 449.9375A90.53125 90.53125 0 0 0 906.25 472.65625A27.34375 27.34375 0 0 1 932.46875 507.78125A168.375 168.375 0 0 0 984.8437499999998 696.21875L988.0937499999998 699.40625A27.34375 27.34375 0 0 1 994.0312499999998 729.21875zM500 597.65625A97.78125 97.78125 0 0 0 597.65625 500V496.09375H402.34375V500A97.78125 97.78125 0 0 0 500 597.65625zM402.34375 441.40625H597.65625V339.84375H402.34375zM246.09375 339.84375C245.5 385.4375 240.3125 448.03125 199.9375 488.5625A130.875 130.875 0 0 1 127.75 524.5625A208.03125 208.03125 0 0 1 92.25 691.40625H93.75C236.125 691.40625 347.65625 607.34375 347.65625 500V339.84375zM597.625 281.25A97.65625 97.65625 0 0 0 402.3125 281.25V285.15625H597.625zM872.21875 524.5625A130.875 130.875 0 0 1 800.0312500000001 488.5625C759.65625 448.03125 754.4687500000001 385.4375 753.9062500000001 339.84375H652.3125000000001V500C652.3125000000001 607.34375 763.84375 691.40625 906.2187500000002 691.40625H907.71875A208 208 0 0 1 872.21875 524.53125z" />
    <glyph glyph-name="carbon:beta"
      unicode="&#xE088;"
      horiz-adv-x="1000" d="M647.40625 569.6875A184.90625 184.90625 0 0 1 718.75 718.75C718.75 829.15625 628.8125 906.25 500 906.25A207.09375 207.09375 0 0 1 281.25 687.5V31.25H343.75V215A253.9375 253.9375 0 0 1 531.25 137.5A230.71875 230.71875 0 0 1 770.40625 375A207.375 207.375 0 0 1 647.40625 569.6875zM531.25 200A177.4375 177.4375 0 0 0 343.75 375V687.5A146.4375 146.4375 0 0 0 500 843.75C594.90625 843.75 656.25 794.6875 656.25 718.75A121.03125 121.03125 0 0 0 531.25 593.75V531.25C638.5625 531.25 707.90625 469.90625 707.90625 375A168.4375 168.4375 0 0 0 531.25 200z" />
    <glyph glyph-name="carbon:bicycle"
      unicode="&#xE089;"
      horiz-adv-x="1000" d="M812.5 500C809.75 500 807.09375 499.6874999999999 804.375 499.5937499999999L757.40625 718.75H875V781.25H718.75A31.25 31.25 0 0 1 688.1875 743.4375L706.875 656.25H387.09375L355.84375 750H437.5V812.5H218.75V750H290L322.53125 652.40625L242.21875 491.7812499999999A187.5 187.5 0 1 1 372.1875 281.25H453.75A62.21875 62.21875 0 0 1 502.5625 304.6875L723.125 580.4375L743.25 486.5625A187.1875 187.1875 0 1 1 812.5 500zM187.5 187.5A125 125 0 1 0 213.625 434.6875L159.5625 326.46875L159.84375 326.3437499999999A30.71875 30.71875 0 0 1 156.25 312.5A31.03125 31.03125 0 0 1 215.15625 298.65625L215.46875 298.5312499999999L269.28125 406.25A124.46875 124.46875 0 0 0 187.5 187.5zM372.1875 343.75A187.46875 187.46875 0 0 1 298.03125 463.625L350.46875 568.5625L425.40625 343.75zM480.25 376.875L407.9375 593.75H653.71875zM812.5 187.5A124.625 124.625 0 0 0 756.6875 423.75L781.9375 305.9375L782.5624999999999 306.0625A30.8125 30.8125 0 0 1 812.5 281.25A31.25 31.25 0 0 1 843.75 312.5A29.5625 29.5625 0 0 1 842.4375 318.9375L843.0624999999999 319.0625L817.8124999999999 436.96875A124.78125 124.78125 0 0 0 812.5 187.5z" />
    <glyph glyph-name="carbon:binoculars"
      unicode="&#xE08A;"
      horiz-adv-x="1000" d="M875 750V843.75A31.25 31.25 0 0 1 843.75 875H656.25A31.25 31.25 0 0 1 625 843.75V750A62.5 62.5 0 0 1 562.5 687.5V625H437.5V687.5A62.5 62.5 0 0 1 375 750V843.75A31.25 31.25 0 0 1 343.75 875H156.25A31.25 31.25 0 0 1 125 843.75V750A62.5 62.5 0 0 1 62.5 687.5V312.5A62.5 62.5 0 0 1 93.75 258.75V156.25A31.25 31.25 0 0 1 125 125H375A31.25 31.25 0 0 1 406.25 156.25V258.75A62.5 62.5 0 0 1 437.5 312.5V375H562.5V312.5A62.5 62.5 0 0 1 593.75 258.75V156.25A31.25 31.25 0 0 1 625 125H875A31.25 31.25 0 0 1 906.25 156.25V258.75A62.5 62.5 0 0 1 937.5 312.5V687.5A62.5 62.5 0 0 1 875 750zM343.75 187.5H156.25V250H343.75zM375 312.5H125V687.5H187.5V812.5H312.5V687.5H375zM437.5 437.5V562.5H562.5V437.5zM843.75 187.5H656.25V250H843.75zM875 312.5H625V687.5H687.5V812.5H812.5V687.5H875z" />
    <glyph glyph-name="carbon:bloch-sphere"
      unicode="&#xE08B;"
      horiz-adv-x="1000" d="M683.4375 755L629.0625000000001 786.25L500 562.5A62.5 62.5 0 1 1 562.5 500A62.5 62.5 0 0 1 554.0625 531.25zM500 937.5A437.5 437.5 0 1 1 937.5 500A437.5 437.5 0 0 1 500 937.5zM500 875A375 375 0 0 0 849.0625 635.9375A802.8125000000001 802.8125000000001 0 0 1 733.75 682.8125L702.5 627.5A709.375 709.375 0 0 0 871.5625 552.8125A345.3125000000001 345.3125000000001 0 0 0 871.5625 447.1875A716.2500000000001 716.2500000000001 0 0 0 500 343.75A716.2500000000001 716.2500000000001 0 0 0 129.0625 447.1875A345.3125000000001 345.3125000000001 0 0 0 129.0625 552.8125A712.5000000000001 712.5000000000001 0 0 0 468.75 656.25V718.75A781.25 781.25 0 0 1 150.9375 637.5A375 375 0 0 0 500 875zM500 125A375 375 0 0 0 150.9375 364.0625A777.5 777.5 0 0 1 500 281.25A777.5 777.5 0 0 1 849.0625 364.0625A375 375 0 0 0 500 125z" />
    <glyph glyph-name="carbon:block-storage"
      unicode="&#xE08C;"
      horiz-adv-x="1000" d="M281.25 625V687.5H125A62.5 62.5 0 0 1 62.5 625V125A62.5 62.5 0 0 1 125 62.5H625A62.5 62.5 0 0 1 687.5 125V406.25H625V125H125V625M687.5 625H437.5V875H687.5zM375 875V625A62.5 62.5 0 0 1 437.5 562.5H687.5A62.5 62.5 0 0 1 750 625V875A62.5 62.5 0 0 1 687.5 937.5H437.5A62.5 62.5 0 0 1 375 875zM437.5 437.5V312.5H312.5V437.5H437.5M250 437.5V312.5A62.5 62.5 0 0 1 312.5 250H437.5A62.5 62.5 0 0 1 500 312.5V437.5A62.5 62.5 0 0 1 437.5 500H312.5A62.5 62.5 0 0 1 250 437.5zM875 468.75V406.25H812.5V468.75H875M750 500V375A31.25 31.25 0 0 1 781.25 343.75H906.25A31.25 31.25 0 0 1 937.5 375V500A31.25 31.25 0 0 1 906.25 531.25H781.25A31.25 31.25 0 0 1 750 500z" />
    <glyph glyph-name="carbon:block-storage-alt"
      unicode="&#xE08D;"
      horiz-adv-x="1000" d="M875 375H812.5V312.5H875V125H125V312.5H187.5V375H125A62.5625 62.5625 0 0 1 62.5 312.5V125A62.5625 62.5625 0 0 1 125 62.5H875A62.5625 62.5625 0 0 1 937.5 125V312.5A62.5625 62.5625 0 0 1 875 375zM187.5 218.75A31.25 31.25 0 0 1 250 218.75A31.25 31.25 0 0 1 187.5 218.75M468.75 375H250V593.75H468.75zM312.5 437.5H406.25V531.25H312.5zM750 375H531.25V593.75H750zM593.75 437.5H687.5V531.25H593.75zM468.75 656.25H250V875H468.75zM312.5 718.75H406.25V812.5H312.5zM750 656.25H531.25V875H750zM593.75 718.75H687.5V812.5H593.75z" />
    <glyph glyph-name="carbon:blockchain"
      unicode="&#xE08E;"
      horiz-adv-x="1000" d="M187.5 250H125V750H187.5zM875 750H812.5V250H875zM750 812.5V875H250V812.5zM750 125V187.5H250V125z" />
    <glyph glyph-name="carbon:blog"
      unicode="&#xE08F;"
      horiz-adv-x="1000" d="M125 250H437.5V187.5H125zM125 437.5H437.5V375H125zM812.5 562.5H187.5A62.5 62.5 0 0 0 125 625V812.5A62.5 62.5 0 0 0 187.5 875H812.5A62.5 62.5 0 0 0 875 812.5V625A62.5 62.5 0 0 0 812.5 562.5zM187.5 812.5V625H812.5V812.5zM812.5 125H625A62.5 62.5 0 0 0 562.5 187.5V375A62.5 62.5 0 0 0 625 437.5H812.5A62.5 62.5 0 0 0 875 375V187.5A62.5 62.5 0 0 0 812.5 125zM625 375V187.5H812.5V375z" />
    <glyph glyph-name="carbon:bluetooth"
      unicode="&#xE090;"
      horiz-adv-x="1000" d="M500 62.5A33.125 33.125 0 0 0 486.875 65.3125A31.25 31.25 0 0 0 468.75 93.75V424.6875L262.8125 218.75L218.75 262.8125L455.9375 500L218.75 737.1875L262.8125 781.25L468.75 575.3125V906.25A31.25 31.25 0 0 0 486.875 934.6875A31.25 31.25 0 0 0 520.3125 930L739.0625 742.5A31.25 31.25 0 0 0 750 718.75A31.25 31.25 0 0 0 740.9375 695.3125L544.0625 500L740.9375 303.4375A31.25 31.25 0 0 0 750 281.25A31.25 31.25 0 0 0 739.0625 258.75L520.3125 71.25A31.25 31.25 0 0 0 500 62.5zM531.25 424.6875V161.5625L672.8125 283.1250000000001zM531.25 838.4375V575.3125L672.8125 716.875z" />
    <glyph glyph-name="carbon:bluetooth-off"
      unicode="&#xE091;"
      horiz-adv-x="1000" d="M875 169.0625L169.0625 875L125 830.9375L455.9375 500L218.75 262.8125L262.8125 218.75L468.75 424.6875V93.75A31.25 31.25 0 0 1 486.875 65.3125A33.125 33.125 0 0 1 500 62.5A31.25 31.25 0 0 1 520.3125 70L717.1875 238.75L830.9375 125zM531.25 161.5625V424.6875000000001L672.8125 283.1250000000001zM531.25 601.5625V838.4375L672.8125 716.875L544.375 588.4375L588.4375000000001 544.375L740.9375 696.5625A31.25 31.25 0 0 1 750 718.75A31.25 31.25 0 0 1 739.0625 741.25L520.3125 928.75A31.25 31.25 0 0 1 486.8749999999999 933.4375A31.25 31.25 0 0 1 468.75 906.25V664.0625z" />
    <glyph glyph-name="carbon:book"
      unicode="&#xE092;"
      horiz-adv-x="1000" d="M593.75 687.5H812.5V625H593.75zM593.75 531.25H812.5V468.75H593.75zM593.75 375H812.5V312.5H593.75zM187.5 687.5H406.25V625H187.5zM187.5 531.25H406.25V468.75H187.5zM187.5 375H406.25V312.5H187.5zM875 843.75H125A62.5625 62.5625 0 0 1 62.5 781.25V218.75A62.5625 62.5625 0 0 1 125 156.25H875A62.5625 62.5625 0 0 1 937.5 218.75V781.25A62.5625 62.5625 0 0 1 875 843.75zM125 781.25H468.75V218.75H125zM531.25 218.75V781.25H875V218.75z" />
    <glyph glyph-name="carbon:bookmark"
      unicode="&#xE093;"
      horiz-adv-x="1000" d="M750 875V164.0625L528.125 276.25L499.9999999999999 290.3125L471.8749999999999 276.25L250 164.0625V875H750M750 937.5H250A62.5 62.5 0 0 1 187.5 875V62.5L500 218.75L812.5 62.5V875A62.5 62.5 0 0 1 750 937.5z" />
    <glyph glyph-name="carbon:bookmark-add"
      unicode="&#xE094;"
      horiz-adv-x="1000" d="M750 500V163.9999999999999L528.25 276.1874999999999L500 290.4687499999999L471.875 276.21875L250 164.125V875H562.5V937.5H250A62.5 62.5 0 0 1 187.5 875V62.5L500 220.4375000000001L812.5 62.5V500zM812.5 812.5V937.5H750V812.5H625V750H750V625H812.5V750H937.5V812.5H812.5z" />
    <glyph glyph-name="carbon:bookmark-filled"
      unicode="&#xE095;"
      horiz-adv-x="1000" d="M750 937.5H250A62.5 62.5 0 0 1 187.5 875V62.5L500 220.4375000000001L812.5 62.5V875A62.5 62.5 0 0 1 750 937.5z" />
    <glyph glyph-name="carbon:boolean"
      unicode="&#xE096;"
      horiz-adv-x="1000" d="M718.75 281.25A218.75 218.75 0 1 0 937.5 500A219 219 0 0 0 718.75 281.25zM718.75 656.25A156.25 156.25 0 1 1 875 500A156.40625 156.40625 0 0 1 718.75 656.25zM62.5 500A218.75 218.75 0 0 1 500 500A218.75 218.75 0 0 1 62.5 500" />
    <glyph glyph-name="carbon:boot"
      unicode="&#xE097;"
      horiz-adv-x="1000" d="M750 468.75H562.5A31.25 31.25 0 0 0 531.25 500V875A62.5625 62.5625 0 0 1 468.75 937.5H156.25A62.5625 62.5625 0 0 1 93.75 875V125A62.5625 62.5625 0 0 1 156.25 62.5H843.75A62.5625 62.5625 0 0 1 906.25 125V312.5A156.4375 156.4375 0 0 1 750 468.75zM843.75 312.5V250H718.75V406.25H750A93.84375 93.84375 0 0 0 843.75 312.5zM468.75 875V812.5H343.75V750H468.75V687.5H343.75V625H468.75V562.5H343.75V500H468.75A93.84375 93.84375 0 0 1 562.5 406.25H656.25V250H442.5625L348.8125 281.25H156.25V875zM781.25 125V156.25H718.75V125H656.25V156.25H593.75V125H531.25V156.25H468.75V125H406.25V156.25H343.75V125H156.25V218.75H338.6875000000001L432.4375000000001 187.5H843.75V125z" />
    <glyph glyph-name="carbon:border-bottom"
      unicode="&#xE098;"
      horiz-adv-x="1000" d="M906.25 93.75H93.75V156.25H906.25zM906.25 218.75H843.75V281.25H906.25zM906.25 343.75H843.75V406.25H906.25zM906.25 468.75H843.75V531.25H906.25zM906.25 593.75H843.75V656.25H906.25zM906.25 718.75H843.75V781.25H906.25zM906.25 843.75H843.75V906.25H906.25zM781.25 843.75H718.75V906.25H781.25zM656.25 843.75H593.75V906.25H656.25zM531.25 843.75H468.75V906.25H531.25zM281.25 843.75H218.75V906.25H281.25zM406.25 843.75H343.75V906.25H406.25zM156.25 218.75H93.75V281.25H156.25zM156.25 343.75H93.75V406.25H156.25zM156.25 468.75H93.75V531.25H156.25zM156.25 593.75H93.75V656.25H156.25zM156.25 718.75H93.75V781.25H156.25zM156.25 843.75H93.75V906.25H156.25zM250 687.5H562.5V625H250zM250 531.25H437.5V468.75H250z" />
    </font>
</defs>
</svg>
